Знаешь, мама, где я был? / Rezo (Леван Габриадзе) [2017, Россия, мультфильм, документальный, биография, WEBRip 1080p] Original Rus

Ответить на тему
Статистика раздачи [Обновить пиров]
Размер:  2.51 GB   |    Зарегистрирован:  7 дней   |    Скачан:  0 раз

Полного источника не было: Никогда

 
   
 
 
 
Автор Сообщение

galltoto.com

Создавать темы 10-Янв-2019 18:41

[Цитировать]

Знаешь, мама, где я был? / Rezo
Страна: Россия
Жанр: мультфильм, документальный, биография
Год выхода: 2017
Продолжительность: 01:03:14
Перевод: Не требуется
Субтитры: нет
Оригинальная аудиодорожка: русский
Режиссер: Леван Габриадзе
В ролях:
Реваз Габриадзе
Описание: «Знаешь, мама, где я был?» – это фильм, рассказанный и написанный Ревазом Габриадзе, грузинским художником, писателем и создателем театра марионеток. Он является документальной автобиографической лентой, выполненной в мультипликационной форме, в которой излагаются идеи глубокой человечности, доброты и сердечности в непростые времена после Второй мировой войны.
Сэмпл: http://sendfile.su/1464708
Тип релиза: WEBRip 1080p (ivi)
Формат файла: MP4
Видео: AVC (x264), 1920^1038 (1,85:1), 25,000 кадров/сек, 5120 кбит/сек
Аудио: Russian AAC, 576 кбит/сек, 48,0 КГц, 6 каналов

MediaInfo

GeneralComplete name : H:\IVI ТОРРЕНТЫ\Мультфильм Знаешь, мама, где я был (2017).mp4Format : MPEG-4Format profile : Base MediaCodec ID : isom (isom/iso2/avc1/mp41)File size : 2.51 GiBDuration : 1 h 3 minOverall bit rate : 5 676 kb/sWriting application : Lavf55.33.100
VideoID : 1Format : AVCFormat/Info : Advanced Video CodecFormat profile : High@L4Format settings : CABAC / 4 Ref FramesFormat settings, CABAC : YesFormat settings, RefFrames : 4 framesCodec ID : avc1Codec ID/Info : Advanced Video CodingDuration : 1 h 3 minBit rate : 5 120 kb/sWidth : 1 920 pixelsHeight : 1 038 pixelsDisplay aspect ratio : 1.85:1Frame rate mode : ConstantFrame rate : 25.000 FPSColor space : YUVChroma subsampling : 4:2:0Bit depth : 8 bitsScan type : ProgressiveBits/(Pixel*Frame) : 0.103Stream size : 2.25 GiB (90%)Writing library : x264 core 142Encoding settings : cabac=1 / ref=3 / deblock=1:0:0 / analyse=0x3:0x113 / me=hex / subme=7 / psy=1 / psy_rd=1.00:0.00 / mixed_ref=1 / me_range=16 / chroma_me=1 / trellis=1 / 8x8dct=1 / cqm=0 / deadzone=21,11 / fast_pskip=1 / chroma_qp_offset=-2 / threads=48 / lookahead_threads=8 / sliced_threads=0 / nr=0 / decimate=1 / interlaced=0 / bluray_compat=0 / constrained_intra=0 / bframes=6 / b_pyramid=2 / b_adapt=1 / b_bias=0 / direct=1 / weightb=1 / open_gop=0 / weightp=2 / keyint=50 / keyint_min=26 / scenecut=0 / intra_refresh=0 / rc_lookahead=40 / rc=2pass / mbtree=1 / bitrate=5120 / ratetol=1.0 / qcomp=0.60 / qpmin=0 / qpmax=69 / qpstep=4 / cplxblur=20.0 / qblur=0.5 / vbv_maxrate=7680 / vbv_bufsize=20480 / nal_hrd=none / filler=0 / ip_ratio=1.40 / aq=1:1.00Language : RussianTagged date : UTC 2018-12-13 11:36:20Codec configuration box : avcC
AudioID : 2Format : AAC LCFormat/Info : Advanced Audio Codec Low ComplexityCodec ID : mp4a-40-2Duration : 1 h 3 minDuration_LastFrame : 43 msBit rate mode : ConstantBit rate : 576 kb/sChannel(s) : 6 channelsChannel layout : C L R Ls Rs LFESampling rate : 48.0 kHzFrame rate : 46.875 FPS (1024 SPF)Compression mode : LossyStream size : 261 MiB (10%)Language : RussianDefault : YesAlternate group : 1Tagged date : UTC 2018-12-13 11:36:20

Скриншоты



[galltoto.com]_t_5666783.torrent
Торрент: Зарегистрирован ·  [ 2019-01-10 18:41 ] ·  6a706f3e36e8e3b33888431633304c1bfa05ef2f

13 KB

Статус: проверено
Скачан: 0 раз
Размер: 2.51 GB
Оценка: 
(Голосов: 0)
Сказали спасибо: 0  Спасибо
Похожие темы
[Профиль]    [ЛС]
Показать сообщения:    
Ответить на тему

Текущее время: Сегодня 12:42

Часовой пояс: GMT + 7



Вы не можете начинать темы
Вы не можете отвечать на сообщения
Вы не можете редактировать свои сообщения
Вы не можете удалять свои сообщения
Вы не можете голосовать в опросах
Вы не можете прикреплять файлы к сообщениям
Вы можете скачивать файлы


The Impact of Television - 1087 Words | Vauxhall Corsa Club A/c | 10x OEM Fast Charge Micro USB Cable Rapid Sync Cord Charger Plug Bulk Wholesale