Женщины в любви / Влюбленные женщины / Женская любовь / Women in Love (Кен Рассел / Ken Russell) [1969, Великобритания, Мелодрама, DVDRip] AVO (Александр Готлиб) + DVO (1+1 (Ukr))

Ответить на тему
Статистика раздачи [Обновить пиров]
Размер:  2.18 GB   |    Зарегистрирован:  9 дней   |    Скачан:  0 раз

Полного источника не было: Никогда

 
   
 
 
 
Автор Сообщение

galltoto.com

Создавать темы 09-Янв-2019 11:02

[Цитировать]

Женщины в любви / Влюбленные женщины / Женская любовь / Women in Love
Страна: Великобритания
Жанр: Мелодрама
Год выхода: 1969
Продолжительность: 02:10:52
Перевод: Авторский (одноголосый закадровый) Александр Готлиб
Перевод 2: Профессиональный (двухголосый закадровый) 1+1 (Ukr)
Субтитры: нет
Режиссер: Кен Рассел / Ken Russell
В ролях: Алан Бейтс, Оливер Рид, Гленда Джексон, Дженни Линден, Элинор Брон, Алан Уэбб,
Владек Шейбал, Кэтрин Уиллмер, Фиби Николлс, Шэрон Гёрни
Описание: По роману Д. Г. Лоуренса. Англия, 1920-е годы. Два друга, Джеральд и Руперт,
знакомятся с двумя сестрами, Урсулой, скульптором, и Гудрун, школьной учительницей. Через
некоторое время Руперт и Урсула женятся, а у Джеральда и Гудрун роман продолжается. Вся
четверка отправляется в свадебное путешествие... Премия "Оскар" Г. Джексон.
Доп. информация: Дорожка с А. Готлибом синхронизирована и наложена ale_x2008 при помощи Adobe Audition, Sony Vegas и VirtualDubMod.
За оцифрованную с VHS дорожку благодарим - alenavova


Сэмпл: http://yadi.sk/i/Ib50SLgkM9Tjow
Качество видео: DVDRip
Формат файла: AVI
Видео: 720x400 (1.80:1), 23.976 fps, XviD build 50 ~1995 kbps avg, 0.29 bit/pixel
Аудио: AC3 Dolby Digital, 48000Hz 2/0 (L,R) ch (mono), 192 kbps avg
Аудио 2: AC3 Dolby Digital, 48000Hz 2/0 (L,R) ch, 192 kbps avg

MediaInfo

Влюбленные женщины - Women in Love (by ale_x2008).aviFormat : AVIFormat/Info : Audio Video InterleaveFormat profile : OpenDMLFile size : 2.18 GiBDuration : 2 h 10 minOverall bit rate : 2 387 kb/sMovie name : Влюбленные женщины - Women in Love (by ale_x2008)Director : by ale_x2008Writing application : VirtualDubMod 1.5.10.2 (build 2540/release)Copyright : Edich2Comment : Torrentc
VideoID : 0Format : MPEG-4 VisualFormat profile : Advanced Simple@L5Format settings : BVOP2 / QPelFormat settings, BVOP : 2Format settings, QPel : YesFormat settings, GMC : No warppointsFormat settings, Matrix : Default (H.263)Codec ID : XVIDCodec ID/Hint : XviDDuration : 2 h 10 minBit rate : 1 985 kb/sWidth : 720 pixelsHeight : 400 pixelsDisplay aspect ratio : 16:9Frame rate : 23.976 (24000/1001) FPSColor space : YUVChroma subsampling : 4:2:0Bit depth : 8 bitsScan type : ProgressiveCompression mode : LossyBits/(Pixel*Frame) : 0.287Stream size : 1.81 GiB (83%)Writing library : XviD 1.2.1 (UTC 2008-12-04)
Audio #1ID : 1Format : AC-3Format/Info : Audio Coding 3Codec ID : 2000Duration : 2 h 10 minBit rate mode : ConstantBit rate : 192 kb/sChannel(s) : 2 channelsChannel positions : Front: L RSampling rate : 48.0 kHzFrame rate : 31.250 FPS (1536 SPF)Bit depth : 16 bitsCompression mode : LossyStream size : 180 MiB (8%)Alignment : Split accross interleavesInterleave, duration : 42 ms (1.00 video frame)Interleave, preload duratio : 500 msService kind : Complete Main
Audio #2ID : 2Format : AC-3Format/Info : Audio Coding 3Codec ID : 2000Duration : 2 h 10 minBit rate mode : ConstantBit rate : 192 kb/sChannel(s) : 2 channelsChannel positions : Front: L RSampling rate : 48.0 kHzFrame rate : 31.250 FPS (1536 SPF)Bit depth : 16 bitsCompression mode : LossyStream size : 180 MiB (8%)Alignment : Split accross interleavesInterleave, duration : 42 ms (1.00 video frame)Interleave, preload duratio : 500 msService kind : Complete Main

Скриншоты




[galltoto.com]_t_5671619.torrent
Торрент: Зарегистрирован ·  [ 2019-01-09 11:02 ] ·  3da27aa7dc4729ad9fd04b5f771913e60b9e77e6

11 KB

Статус: проверено
Скачан: 0 раз
Размер: 2.18 GB
Оценка: 
(Голосов: 0)
Сказали спасибо: 0  Спасибо
Похожие темы
[Профиль]    [ЛС]
Показать сообщения:    
Ответить на тему

Текущее время: Сегодня 12:59

Часовой пояс: GMT + 7



Вы не можете начинать темы
Вы не можете отвечать на сообщения
Вы не можете редактировать свои сообщения
Вы не можете удалять свои сообщения
Вы не можете голосовать в опросах
Вы не можете прикреплять файлы к сообщениям
Вы можете скачивать файлы


Economic Growth and Development - 424 Words | Watch movie | [Chapter 243]