Бамако / Bamako (Абдеррахман Сиссако / Abderrahmane Sissako) [2006, Мали, США, Франция, драма, SATRip] (перевод Г.Мирзоевой, Éclair Group) + Sub Rus + Original Fra

Ответить на тему
Статистика раздачи [Обновить пиров]
Размер:  1.45 GB   |    Зарегистрирован:  1 месяц 12 дней   |    Скачан:  0 раз

Полного источника не было: Никогда

 
   
 
 
 
Автор Сообщение

galltoto.com

Создавать темы 09-Янв-2019 10:28

[Цитировать]

Бамако / Bamako
Страна: Мали, США, Франция
Жанр: драма
Год выхода: 2006
Продолжительность: 01:52:05
Перевод: Субтитры перевод Г.Мирзоевой, Éclair Group
Субтитры: русские
Оригинальная аудиодорожка: французский
Режиссер: Абдеррахман Сиссако / Abderrahmane Sissako
В ролях: Айса Майга / Aïssa Maïga (Melé), Тиекура Траоре / Tiécoura Traoré (Chaka), Маймуна Хелен Диарра / Maimouna Hélène Diarra (Saramba), Балла Хабиб Дембеле / Balla Habib Dembélé (Falaï), Уильям Бурдон / William Bourdon (Avocat partie civile), Дэнни Гловер / Danny Glover (Cow-boy), Элиа Сулейман / Elia Suleiman (Cow-boy), Абдеррахман Сиссако / Abderrahmane Sissako (Cow-boy)
Описание: Фильм оскаровского номинанта Абдеррахмана Сиссако непрост для просмотра. Основное действие, как в спектакле, локализовано в узком пространстве двора, где идет судебное заседание. Через двор постоянно проходят разные люди — женщины с детьми, мужчины, замкнувшиеся в своем молчании и словно не понимающие о чем идет речь на суде, который уже надоел. Заседание прерывается свадебной процессией, самая простая жизнь проходит перед глазами, как калейдоскоп картинок. Вот маленький ребенок, готовый заплакать, женщины, красящие ткани, больной человек, переносящий в молчании свое страдание. Вот женщина, которая поет в кафе, она тоже не обращает внимания на суд, как на некую формальность, не имеющую к ней никакого отношения. Но ее гордо посаженная голова и врожденное чувство собственного достоинства — то же спокойное достоинство видишь на лицах всех жителей — говорят о внутренней силе и внушают уважение. (Тристрам Шенди)
Доп. информация: Рип с этой раздачи. Hot Bird (13.0°E) TV5MONDE Europe DVB-S. Во время нефранцузской речи на экране вшитые французские субтитры.
Награды:
  • номинация на премию "Сезар" 2007 в категории "Актриса-надежда" (Aïssa Maïga);
  • приз зрительских симпатий Paris Cinema 2006; приз Lumiere Awards, France 2007 за лучший франкоязычный фильм;
  • награда FACE Award - Istanbul International Film Festival 2007. Участник Cannes Film Festival 2006.
    Сэмпл: http://sendfile.su/1465744
    Качество видео: SATRip
    Формат файла: AVI
    Видео: XviD, 688x368, 20fps, ~1651kbps, 0.32 b/pf
    Аудио: AC3, 48Khz, 192Kbps, 2ch, French
    Формат файла субтитров: softsub (SRT)

MediaInfo

Format : AVIFormat/Info : Audio Video InterleaveFile size : 1.45 GiBDuration : 1 h 52 minOverall bit rate : 1 851 kb/s
VideoID : 0Format : MPEG-4 VisualFormat profile : Advanced Simple@L5Format settings : BVOP2Format settings, BVOP : 2Format settings, QPel : NoFormat settings, GMC : No warppointsFormat settings, Matrix : Default (H.263)Codec ID : XVIDCodec ID/Hint : XviDDuration : 1 h 52 minBit rate : 1 652 kb/sWidth : 688 pixelsHeight : 368 pixelsDisplay aspect ratio : 1.85:1Frame rate : 20.000 FPSColor space : YUVChroma subsampling : 4:2:0Bit depth : 8 bitsScan type : ProgressiveCompression mode : LossyBits/(Pixel*Frame) : 0.326Stream size : 1.29 GiB (89%)Writing library : XviD 67
AudioID : 1Format : AC-3Format/Info : Audio Coding 3Commercial name : Dolby DigitalCodec ID : 2000Duration : 1 h 52 minBit rate mode : ConstantBit rate : 192 kb/sChannel(s) : 2 channelsChannel layout : L RSampling rate : 48.0 kHzFrame rate : 31.250 FPS (1536 SPF)Bit depth : 16 bitsCompression mode : LossyStream size : 154 MiB (10%)Alignment : Aligned on interleavesInterleave, duration : 64 ms (1.28 video frame)Interleave, preload duration : 192 msTitle : [apreder]Bamako(2006)DVB_VTS_01_1 Tc0 L2 2ch 48 192 DELAY 0msService kind : Complete Main

Пример субтитров

6
00:03:33,480 --> 00:03:37,280
Скажите ему, что у него
ещё будет время высказаться.
7
00:03:37,440 --> 00:03:39,408
А пока пусть сядет на место.
8
00:03:46,560 --> 00:03:48,846
Мне есть что сказать.
9
00:03:49,160 --> 00:03:51,367
У меня на душе много накопилось.

Скриншот c названием фильма

Скриншоты




[galltoto.com]_t_5669217.torrent
Торрент: Зарегистрирован ·  [ 2019-01-09 10:27 ] ·  f40b87bd8a29e4824e7fb37aef36c61ad6e559bd

15 KB

Статус: проверено
Скачан: 0 раз
Размер: 1.45 GB
Оценка: 
(Голосов: 0)
Сказали спасибо: 0  Спасибо
Похожие темы
[Профиль]    [ЛС]
Показать сообщения:    
Ответить на тему

Текущее время: Сегодня 19:04

Часовой пояс: GMT + 7



Вы не можете начинать темы
Вы не можете отвечать на сообщения
Вы не можете редактировать свои сообщения
Вы не можете удалять свои сообщения
Вы не можете голосовать в опросах
Вы не можете прикреплять файлы к сообщениям
Вы можете скачивать файлы


Dominion | Full Moon wo Sagashite | RPG / Przygodowe