(Darkwave | Synth Gothic Rock | Synth Pop) [CD] Diary Of Dreams - Discography [28 Releases] - 1994 - 2017, FLAC (image+.cue), lossless

Ответить на тему
Статистика раздачи [Обновить пиров]
Размер:  10.68 GB   |    Зарегистрирован:  14 дней   |    Скачан:  0 раз

Полного источника не было: Никогда

 
   
 
 
 
Автор Сообщение

galltoto.com

Создавать темы 07-Янв-2019 13:52

[Цитировать]

Diary Of Dreams / Discography [28 Releases]-- --Жанр: Darkwave | Synth Gothic Rock | Synth Pop
Носитель: CD
Год издания: 1994 - 2017
Страна исполнителя (группы): Deutschland [Düsseldorf]
Аудиокодек: FLAC (*.flac)
Тип рипа: image+.cue
Битрейт аудио: lossless
Продолжительность: 27:36:58
Источник (релизер): FireRoke, Максим_Иванович, ramakrishna
Наличие сканов в содержимом раздачи:Да
--Треклист:--

1994 - Cholymelan [A 008] 01:13:16

01. Ein Wiegenlied
02. At The Border Of My Nation
03. Shattered Disguise
04. War On A Meadow
05. Holier Than Thou Approach
06. False Affection | False Creation
07. And Silence Still Remains
08. Phantasmogoria
09. To Conquer The Angel's Laugh
10. Cholymelan
11. Between The Clouds
12. The Stranger Remains
13. Bird Without Wings
14. Winters Decay

Отчёт EAC

Exact Audio Copy V1.0 beta 4 from 7. December 2014
EAC extraction logfile from 22. June 2017, 13:35
Diary Of Dreams / Cholymelan
Used drive : ASUS BW-12B1LT Adapter: 1 ID: 0
Read mode : SecureUtilize accurate stream : YesDefeat audio cache : YesMake use of C2 pointers : No
Read offset correction : 6Overread into Lead-In and Lead-Out : NoFill up missing offset samples with silence : YesDelete leading and trailing silent blocks : NoNull samples used in CRC calculations : YesUsed interface : Native Win32 interface for Win NT & 2000
Used output format : User Defined EncoderSelected bitrate : 1024 kBit/sQuality : HighAdd ID3 tag : NoCommand line compressor : C:\Program Files (x86)\Exact Audio Copy\Flac\flac.exeAdditional command line options : -V -8 -T "Date=%year%" -T "Genre=%genre%" %source%
TOC of the extracted CD
Track | Start | Length | Start sector | End sector --------------------------------------------------------- 1 | 0:00.00 | 4:20.64 | 0 | 19563 2 | 4:20.64 | 4:38.52 | 19564 | 40465 3 | 8:59.41 | 5:13.62 | 40466 | 64002 4 | 14:13.28 | 5:23.58 | 64003 | 88285 5 | 19:37.11 | 4:42.68 | 88286 | 109503 6 | 24:20.04 | 5:02.63 | 109504 | 132216 7 | 29:22.67 | 4:44.10 | 132217 | 153526 8 | 34:07.02 | 5:29.25 | 153527 | 178226 9 | 39:36.27 | 6:46.30 | 178227 | 208706 10 | 46:22.57 | 4:47.31 | 208707 | 230262 11 | 51:10.13 | 4:56.39 | 230263 | 252501 12 | 56:06.52 | 5:38.11 | 252502 | 277862 13 | 61:44.63 | 2:40.04 | 277863 | 289866 14 | 64:24.67 | 8:51.36 | 289867 | 329727
Range status and errors
Selected range
Filename F:\Diary Of Deams\1994 - Cholymelan (A 008)\Diary Of Dreams - Cholymelan.wav
Peak level 100.0 % Extraction speed 9.6 X Range quality 100.0 % Test CRC 9EA1FD9D Copy CRC 9EA1FD9D Copy OK
No errors occurred
AccurateRip summary
Track 1 accurately ripped (confidence 3) [74AFFE09] (AR v2)Track 2 accurately ripped (confidence 3) [3ABFCA73] (AR v2)Track 3 accurately ripped (confidence 3) [E14DF380] (AR v2)Track 4 accurately ripped (confidence 3) [67C147DA] (AR v2)Track 5 accurately ripped (confidence 3) [A690FBF9] (AR v2)Track 6 accurately ripped (confidence 3) [D5833591] (AR v2)Track 7 accurately ripped (confidence 3) [91BFF300] (AR v2)Track 8 accurately ripped (confidence 3) [A331525D] (AR v2)Track 9 accurately ripped (confidence 3) [4A23FD2A] (AR v2)Track 10 accurately ripped (confidence 3) [36F19C05] (AR v2)Track 11 accurately ripped (confidence 3) [6BD07AC5] (AR v2)Track 12 accurately ripped (confidence 3) [CDD5AB59] (AR v2)Track 13 accurately ripped (confidence 3) [FC22BBD6] (AR v2)Track 14 accurately ripped (confidence 3) [149E8F1A] (AR v2)
All tracks accurately ripped
End of status report
---- CUETools DB Plugin V2.1.4
[CTDB TOCID: lLGdm.I6bIz7W5NZcmcRooHzvDc-] foundSubmit result: already submittedTrack | CTDB Status 1 | (24/24) Accurately ripped 2 | (24/24) Accurately ripped 3 | (24/24) Accurately ripped 4 | (24/24) Accurately ripped 5 | (24/24) Accurately ripped 6 | (24/24) Accurately ripped 7 | (24/24) Accurately ripped 8 | (24/24) Accurately ripped 9 | (24/24) Accurately ripped 10 | (23/24) Accurately ripped 11 | (24/24) Accurately ripped 12 | (24/24) Accurately ripped 13 | (24/24) Accurately ripped 14 | (24/24) Accurately ripped
==== Log checksum C22B28874DA9B37FC36016D6EA2D17E753BAC1AA554132F0780BDF73EB210248 ====

1996 - End Of Flowers [A 001] 01:13:04

01. End Of Flowers
02. Victimized
03. Fool To Blame
04. Scars Of Greed
05. Oblivion
06. Cold Deceit
07. Retaliation
08. Willow
09. Deviation
10. Eyesolation
11. Tears Of Laughter

Отчёт EAC

Exact Audio Copy V1.0 beta 4 from 7. December 2014
EAC extraction logfile from 22. June 2017, 14:02
Diary Of Dreams / End Of Flowers
Used drive : ASUS BW-12B1LT Adapter: 1 ID: 0
Read mode : SecureUtilize accurate stream : YesDefeat audio cache : YesMake use of C2 pointers : No
Read offset correction : 6Overread into Lead-In and Lead-Out : NoFill up missing offset samples with silence : YesDelete leading and trailing silent blocks : NoNull samples used in CRC calculations : YesUsed interface : Native Win32 interface for Win NT & 2000
Used output format : User Defined EncoderSelected bitrate : 1024 kBit/sQuality : HighAdd ID3 tag : NoCommand line compressor : C:\Program Files (x86)\Exact Audio Copy\Flac\flac.exeAdditional command line options : -V -8 -T "Date=%year%" -T "Genre=%genre%" %source%
TOC of the extracted CD
Track | Start | Length | Start sector | End sector --------------------------------------------------------- 1 | 0:00.00 | 7:18.42 | 0 | 32891 2 | 7:18.42 | 5:44.05 | 32892 | 58696 3 | 13:02.47 | 6:47.43 | 58697 | 89264 4 | 19:50.15 | 6:32.50 | 89265 | 118714 5 | 26:22.65 | 6:22.50 | 118715 | 147414 6 | 32:45.40 | 5:47.47 | 147415 | 173486 7 | 38:33.12 | 5:47.13 | 173487 | 199524 8 | 44:20.25 | 6:51.15 | 199525 | 230364 9 | 51:11.40 | 5:48.07 | 230365 | 256471 10 | 56:59.47 | 7:44.28 | 256472 | 291299 11 | 64:44.00 | 8:20.10 | 291300 | 328809
Range status and errors
Selected range
Filename F:\Diary Of Deams\1996 - End Of Flowers (A 001)\Diary Of Dreams - End Of Flowers.wav
Peak level 99.0 % Extraction speed 9.7 X Range quality 100.0 % Test CRC 5E7CAB04 Copy CRC 5E7CAB04 Copy OK
No errors occurred
AccurateRip summary
Track 1 accurately ripped (confidence 7) [1CA1A2C1] (AR v2)Track 2 accurately ripped (confidence 7) [48D80825] (AR v2)Track 3 accurately ripped (confidence 7) [191CC892] (AR v2)Track 4 accurately ripped (confidence 7) [13DAC7AC] (AR v2)Track 5 accurately ripped (confidence 7) [BE7D001E] (AR v2)Track 6 accurately ripped (confidence 7) [4F4C954E] (AR v2)Track 7 accurately ripped (confidence 7) [CB897A44] (AR v2)Track 8 accurately ripped (confidence 7) [81C3ABD0] (AR v2)Track 9 accurately ripped (confidence 7) [84984477] (AR v2)Track 10 accurately ripped (confidence 7) [813A9288] (AR v2)Track 11 accurately ripped (confidence 7) [4A48BC90] (AR v2)
All tracks accurately ripped
End of status report
---- CUETools DB Plugin V2.1.4
[CTDB TOCID: e_b_kRcBppY.GOG.YIFySfkY.AA-] foundSubmit result: already submittedTrack | CTDB Status 1 | (40/41) Accurately ripped 2 | (40/41) Accurately ripped 3 | (40/41) Accurately ripped 4 | (39/41) Accurately ripped 5 | (40/41) Accurately ripped 6 | (40/41) Accurately ripped 7 | (40/41) Accurately ripped 8 | (39/41) Accurately ripped 9 | (39/41) Accurately ripped 10 | (38/41) Accurately ripped 11 | (40/41) Accurately ripped
==== Log checksum 4FF8EF90C5EC8379F41433EF9C3EBEDA7D82506DECAC3CC0A7849EA1B6355E65 ====

1997 - Bird Withiut Wings [A 005] 01:11:51

01. Stimulation
02. Bird Without Wings II
03. Dissolution
04. June
05. Aphelion
06. But The Wind Was Stronger
07. A Sinner's Instincts
08. Ex - Ile
09. Legends
10. Flood Of Tears

Отчёт EAC

Exact Audio Copy V1.0 beta 4 from 7. December 2014
EAC extraction logfile from 22. June 2017, 14:45
Diary Of Dreams / Bird Without Wings
Used drive : ASUS BW-12B1LT Adapter: 1 ID: 0
Read mode : SecureUtilize accurate stream : YesDefeat audio cache : YesMake use of C2 pointers : No
Read offset correction : 6Overread into Lead-In and Lead-Out : NoFill up missing offset samples with silence : YesDelete leading and trailing silent blocks : NoNull samples used in CRC calculations : YesUsed interface : Native Win32 interface for Win NT & 2000
Used output format : User Defined EncoderSelected bitrate : 1024 kBit/sQuality : HighAdd ID3 tag : NoCommand line compressor : C:\Program Files (x86)\Exact Audio Copy\Flac\flac.exeAdditional command line options : -V -8 -T "Date=%year%" -T "Genre=%genre%" %source%
TOC of the extracted CD
Track | Start | Length | Start sector | End sector --------------------------------------------------------- 1 | 0:00.00 | 8:44.02 | 0 | 39301 2 | 8:44.02 | 5:46.58 | 39302 | 65309 3 | 14:30.60 | 7:59.57 | 65310 | 101291 4 | 22:30.42 | 5:52.35 | 101292 | 127726 5 | 28:23.02 | 6:17.20 | 127727 | 156021 6 | 34:40.22 | 8:26.28 | 156022 | 193999 7 | 43:06.50 | 7:12.70 | 194000 | 226469 8 | 50:19.45 | 5:26.05 | 226470 | 250924 9 | 55:45.50 | 8:51.10 | 250925 | 290759 10 | 64:36.60 | 7:13.55 | 290760 | 323289
Range status and errors
Selected range
Filename F:\Diary Of Deams\1997 - Bird Withiut Wings (A 005)\Diary Of Dreams - Bird Without Wings.wav
Peak level 100.0 % Extraction speed 3.8 X Range quality 100.0 % Test CRC 4C5E3473 Copy CRC 4C5E3473 Copy OK
No errors occurred
AccurateRip summary
Track 1 accurately ripped (confidence 7) [919701C9] (AR v2)Track 2 accurately ripped (confidence 7) [D6A158D9] (AR v2)Track 3 accurately ripped (confidence 7) [F4D047E6] (AR v2)Track 4 accurately ripped (confidence 7) [673836E1] (AR v2)Track 5 accurately ripped (confidence 7) [1EB03B21] (AR v2)Track 6 accurately ripped (confidence 7) [E47E9970] (AR v2)Track 7 accurately ripped (confidence 7) [4FF639E1] (AR v2)Track 8 accurately ripped (confidence 7) [BC8DB47C] (AR v2)Track 9 accurately ripped (confidence 7) [092E9A86] (AR v2)Track 10 accurately ripped (confidence 7) [1B1C2BC1] (AR v2)
All tracks accurately ripped
End of status report
---- CUETools DB Plugin V2.1.4
[CTDB TOCID: xWHkMNHoQYeBMr_Am4O0yhJQtis-] foundSubmit result: already submittedTrack | CTDB Status 1 | (38/38) Accurately ripped 2 | (38/38) Accurately ripped 3 | (38/38) Accurately ripped 4 | (37/38) Accurately ripped 5 | (37/38) Accurately ripped 6 | (36/38) Accurately ripped 7 | (38/38) Accurately ripped 8 | (38/38) Accurately ripped 9 | (38/38) Accurately ripped 10 | (38/38) Accurately ripped
==== Log checksum 9B3C7066DFB7894EFC533DA316A85CDF8FD124692A3E38CD5D1EBBD1D00DCCD7 ====

1998 - Psychoma? [A 006] 01:12:14

01. [Ver]Gift[Et]?
02. Never' Freeze
03. Methusalem
04. Luna [- Tic]
05. Drop Dead
06. Touch
07. E.- Dead - Motion
08. Never! Land
09. Wild
10. You [- Das]
11. Transformation Baby
12. End[Giftet]?

Отчёт EAC

Exact Audio Copy V1.0 beta 4 from 7. December 2014
EAC extraction logfile from 22. June 2017, 15:28
Diary Of Dreams / Psychoma?
Used drive : ASUS BW-12B1LT Adapter: 1 ID: 0
Read mode : SecureUtilize accurate stream : YesDefeat audio cache : YesMake use of C2 pointers : No
Read offset correction : 6Overread into Lead-In and Lead-Out : NoFill up missing offset samples with silence : YesDelete leading and trailing silent blocks : NoNull samples used in CRC calculations : YesUsed interface : Native Win32 interface for Win NT & 2000
Used output format : User Defined EncoderSelected bitrate : 1024 kBit/sQuality : HighAdd ID3 tag : NoCommand line compressor : C:\Program Files (x86)\Exact Audio Copy\Flac\flac.exeAdditional command line options : -V -8 -T "Date=%year%" -T "Genre=%genre%" %source%
TOC of the extracted CD
Track | Start | Length | Start sector | End sector --------------------------------------------------------- 1 | 0:00.00 | 6:49.07 | 0 | 30681 2 | 6:49.07 | 5:14.00 | 30682 | 54231 3 | 12:03.07 | 6:40.68 | 54232 | 84299 4 | 18:44.00 | 6:24.30 | 84300 | 113129 5 | 25:08.30 | 7:11.05 | 113130 | 145459 6 | 32:19.35 | 1:00.42 | 145460 | 150001 7 | 33:20.02 | 8:05.18 | 150002 | 186394 8 | 41:25.20 | 6:28.30 | 186395 | 215524 9 | 47:53.50 | 6:03.35 | 215525 | 242784 10 | 53:57.10 | 4:59.20 | 242785 | 265229 11 | 58:56.30 | 6:41.25 | 265230 | 295329 12 | 65:37.55 | 6:36.57 | 295330 | 325086
Range status and errors
Selected range
Filename F:\Diary Of Deams\1998 - Psychoma (A 006)\Diary Of Dreams - Psychoma.wav
Peak level 100.0 % Extraction speed 3.8 X Range quality 100.0 % Test CRC 1C794753 Copy CRC 1C794753 Copy OK
No errors occurred
AccurateRip summary
Track 1 accurately ripped (confidence 5) [88E7430D] (AR v2)Track 2 accurately ripped (confidence 5) [82B0A679] (AR v2)Track 3 accurately ripped (confidence 5) [461B8AEC] (AR v2)Track 4 accurately ripped (confidence 5) [869C9F52] (AR v2)Track 5 accurately ripped (confidence 5) [79455EA6] (AR v2)Track 6 accurately ripped (confidence 5) [BC9F2BF8] (AR v2)Track 7 accurately ripped (confidence 5) [284E6CDD] (AR v2)Track 8 accurately ripped (confidence 5) [DCBB8795] (AR v2)Track 9 accurately ripped (confidence 5) [1A1EC803] (AR v2)Track 10 accurately ripped (confidence 5) [1BBD8699] (AR v2)Track 11 accurately ripped (confidence 5) [F06B52BA] (AR v2)Track 12 accurately ripped (confidence 5) [F9F19955] (AR v2)
All tracks accurately ripped
End of status report
---- CUETools DB Plugin V2.1.4
[CTDB TOCID: zKbl61t6FZXEvQnEDyP_Oqmw8G0-] foundSubmit result: already submittedTrack | CTDB Status 1 | (38/38) Accurately ripped 2 | (38/38) Accurately ripped 3 | (38/38) Accurately ripped 4 | (38/38) Accurately ripped 5 | (38/38) Accurately ripped 6 | (38/38) Accurately ripped 7 | (38/38) Accurately ripped 8 | (38/38) Accurately ripped 9 | (37/38) Accurately ripped 10 | (38/38) Accurately ripped 11 | (38/38) Accurately ripped 12 | (38/38) Accurately ripped
==== Log checksum 462F9BE3C72B50C22B3CF97549DE1BAB7394DDEF739EE82B277D61C6B3373D7F ====

1999 - Moments Of Bloom [A 010] 01:17:25

01. Cholymelan
02. False Affection | False Creation III
03. End Of Flowers
04. Retaliation
05. But The Wind Was Stronger
06. Ex - Ile
07. Methusalem
08. End[GiFtet]?
09. Moments Of Bloom
10. Touch II
11. Reality Of Mine
12. Predictions

Отчёт EAC

Exact Audio Copy V1.0 beta 4 from 7. December 2014
EAC extraction logfile from 22. June 2017, 16:51
Diary Of Dreams / Moments Of Bloom
Used drive : ASUS BW-12B1LT Adapter: 1 ID: 0
Read mode : SecureUtilize accurate stream : YesDefeat audio cache : YesMake use of C2 pointers : No
Read offset correction : 6Overread into Lead-In and Lead-Out : NoFill up missing offset samples with silence : YesDelete leading and trailing silent blocks : NoNull samples used in CRC calculations : YesUsed interface : Native Win32 interface for Win NT & 2000
Used output format : User Defined EncoderSelected bitrate : 1024 kBit/sQuality : HighAdd ID3 tag : NoCommand line compressor : C:\Program Files (x86)\Exact Audio Copy\Flac\flac.exeAdditional command line options : -V -8 -T "Date=%year%" -T "Genre=%genre%" %source%
TOC of the extracted CD
Track | Start | Length | Start sector | End sector --------------------------------------------------------- 1 | 0:00.00 | 4:54.40 | 0 | 22089 2 | 4:54.40 | 4:31.25 | 22090 | 42439 3 | 9:25.65 | 6:59.37 | 42440 | 73901 4 | 16:25.27 | 5:46.58 | 73902 | 99909 5 | 22:12.10 | 7:20.72 | 99910 | 132981 6 | 29:33.07 | 6:03.10 | 132982 | 160216 7 | 35:36.17 | 6:47.23 | 160217 | 190764 8 | 42:23.40 | 6:36.30 | 190765 | 220494 9 | 48:59.70 | 6:27.45 | 220495 | 249564 10 | 55:27.40 | 7:16.05 | 249565 | 282269 11 | 62:43.45 | 5:09.17 | 282270 | 305461 12 | 67:52.62 | 9:32.10 | 305462 | 348371
Range status and errors
Selected range
Filename F:\Diary Of Deams\1999 - Moments Of Bloom (A 010)\Diary Of Dreams - Moments Of Bloom.wav
Peak level 100.0 % Extraction speed 10.0 X Range quality 100.0 % Test CRC A0FA8744 Copy CRC A0FA8744 Copy OK
No errors occurred
AccurateRip summary
Track 1 accurately ripped (confidence 3) [2B283B71] (AR v2)Track 2 accurately ripped (confidence 3) [3A3873E2] (AR v2)Track 3 accurately ripped (confidence 3) [3CEDD210] (AR v2)Track 4 accurately ripped (confidence 3) [E1B07A3A] (AR v2)Track 5 accurately ripped (confidence 3) [85AE7FC4] (AR v2)Track 6 accurately ripped (confidence 3) [A3E8EBEB] (AR v2)Track 7 accurately ripped (confidence 3) [B87DD781] (AR v2)Track 8 accurately ripped (confidence 3) [7E276F7E] (AR v2)Track 9 accurately ripped (confidence 3) [F84D857B] (AR v2)Track 10 accurately ripped (confidence 3) [6A306CDE] (AR v2)Track 11 accurately ripped (confidence 3) [4CCE1E7A] (AR v2)Track 12 accurately ripped (confidence 3) [42D69FB7] (AR v2)
All tracks accurately ripped
End of status report
---- CUETools DB Plugin V2.1.4
[CTDB TOCID: h3JivLmXvSdWdKJ1McQcrvUqbJU-] foundSubmit result: already submittedTrack | CTDB Status 1 | (20/20) Accurately ripped 2 | (20/20) Accurately ripped 3 | (20/20) Accurately ripped 4 | (20/20) Accurately ripped 5 | (20/20) Accurately ripped 6 | (20/20) Accurately ripped 7 | (20/20) Accurately ripped 8 | (20/20) Accurately ripped 9 | (20/20) Accurately ripped 10 | (20/20) Accurately ripped 11 | (19/20) Accurately ripped 12 | (20/20) Accurately ripped
==== Log checksum D5808DA608088A0F3EA93E4A8EE342528BA1B5B778FED229D934346320E60DB1 ====

2000 - One Of 18 Angels [MET 164] 01:09:03

01. Rumours About Angels
02. Butterfly : Dance!
03. Mankind
04. Winter Souls
05. No - Body Left To Blame
06. Chemicals
07. Babylon
08. Colorblind
09. People Watcher
10. Darker
11. Dead Souls Dreaming

Отчёт EAC

Exact Audio Copy V1.0 beta 4 from 7. December 2014
EAC extraction logfile from 22. June 2017, 17:34
Diary Of Dreams / One Of 18 Angels
Used drive : ASUS BW-12B1LT Adapter: 1 ID: 0
Read mode : SecureUtilize accurate stream : YesDefeat audio cache : YesMake use of C2 pointers : No
Read offset correction : 6Overread into Lead-In and Lead-Out : NoFill up missing offset samples with silence : YesDelete leading and trailing silent blocks : NoNull samples used in CRC calculations : YesUsed interface : Native Win32 interface for Win NT & 2000
Used output format : User Defined EncoderSelected bitrate : 1024 kBit/sQuality : HighAdd ID3 tag : NoCommand line compressor : C:\Program Files (x86)\Exact Audio Copy\Flac\flac.exeAdditional command line options : -V -8 -T "Date=%year%" -T "Genre=%genre%" %source%
TOC of the extracted CD
Track | Start | Length | Start sector | End sector --------------------------------------------------------- 1 | 0:00.00 | 8:13.25 | 0 | 36999 2 | 8:13.25 | 6:53.57 | 37000 | 68031 3 | 15:07.07 | 6:22.60 | 68032 | 96741 4 | 21:29.67 | 5:44.58 | 96742 | 122599 5 | 27:14.50 | 6:05.50 | 122600 | 150024 6 | 33:20.25 | 5:51.32 | 150025 | 176381 7 | 39:11.57 | 5:16.03 | 176382 | 200084 8 | 44:27.60 | 5:21.00 | 200085 | 224159 9 | 49:48.60 | 6:30.22 | 224160 | 253431 10 | 56:19.07 | 6:50.33 | 253432 | 284214 11 | 63:09.40 | 5:53.07 | 284215 | 310696
Range status and errors
Selected range
Filename F:\Diary Of Deams\2000 - One Of 18 Angels (MET 164)\Diary Of Dreams - One Of 18 Angels.wav
Peak level 96.6 % Extraction speed 3.6 X Range quality 100.0 % Test CRC 2D610736 Copy CRC 2D610736 Copy OK
No errors occurred
AccurateRip summary
Track 1 cannot be verified as accurate (confidence 5) [3DD2FA78], AccurateRip returned [62CF52ED] (AR v2)Track 2 cannot be verified as accurate (confidence 5) [51899F63], AccurateRip returned [88114B59] (AR v2)Track 3 cannot be verified as accurate (confidence 5) [F4253BAD], AccurateRip returned [61AAF344] (AR v2)Track 4 cannot be verified as accurate (confidence 5) [652C1955], AccurateRip returned [EB2DDB12] (AR v2)Track 5 cannot be verified as accurate (confidence 5) [7D14EBBE], AccurateRip returned [DA88ADA4] (AR v2)Track 6 cannot be verified as accurate (confidence 5) [FF1A3309], AccurateRip returned [B24394A2] (AR v2)Track 7 cannot be verified as accurate (confidence 5) [18D7D3BB], AccurateRip returned [39A17A7E] (AR v2)Track 8 cannot be verified as accurate (confidence 5) [86EC7369], AccurateRip returned [68565304] (AR v2)Track 9 cannot be verified as accurate (confidence 5) [24D022D6], AccurateRip returned [1C605BE0] (AR v2)Track 10 cannot be verified as accurate (confidence 5) [0B639632], AccurateRip returned [7AE69FEC] (AR v2)Track 11 cannot be verified as accurate (confidence 5) [DE5A1F45], AccurateRip returned [D0F78067] (AR v2)
No tracks could be verified as accurateYou may have a different pressing from the one(s) in the database
End of status report
---- CUETools DB Plugin V2.1.4
[CTDB TOCID: jiR1yrAV_RI2gdpI2LRTDp2Bn.s-] foundSubmit result: already submittedTrack | CTDB Status 1 | (8/8) Accurately ripped 2 | (8/8) Accurately ripped 3 | (8/8) Accurately ripped 4 | (8/8) Accurately ripped 5 | (8/8) Accurately ripped 6 | (8/8) Accurately ripped 7 | (8/8) Accurately ripped 8 | (8/8) Accurately ripped 9 | (8/8) Accurately ripped 10 | (8/8) Accurately ripped 11 | (5/8) Accurately ripped, or (3/8) differs in 70 samples @04:20:51,04:25:30-04:25:31
==== Log checksum D1AF9CA0519D81A708AD0A0737F45C4D4FE723B974CBACA5F132685FFD8B0AB7 ====

2001 - O'Brother Sleep [EFA 03633-2] 00:18:37

01. O' Brother Sleep [Sleepwalker Mix]
02. She
03. O' Brother Sleep
04. She [Demonic Mix]

Отчёт EAC

Exact Audio Copy V1.3 from 2. September 2016
Отчёт EAC об извлечении, выполненном 9. апреля 2017, 0:21
Diary of Dreams / O'Brother Sleep
Дисковод: _NEC DVD_RW ND-3500AG Adapter: 1 ID: 0
Режим чтения : ДостоверностьИспользование точного потока : ДаОтключение кэша аудио : ДаИспользование указателей C2 : Нет
Коррекция смещения при чтении : 48Способность читать области Lead-in и Lead-out : НетЗаполнение пропущенных сэмплов тишиной : ДаУдаление блоков с тишиной в начале и конце : НетПри вычислениях CRC использовались нулевые сэмплы : ДаИнтерфейс : Встроенный Win32-интерфейс для Win NT/2000
Выходной формат : Пользовательский кодировщикВыбранный битрейт : 128 kBit/sКачество : ВысокийДобавление ID3-тега : НетУтилита сжатия : C:\Program Files (x86)\Exact Audio Copy\Flac\flac.exeДополнительные параметры : -V -8 %source%
TOC извлечённого CD
Трек | Старт | Длительность | Начальный сектор | Конечный сектор --------------------------------------------------------------------- 1 | 0:00.00 | 4:38.40 | 0 | 20889 2 | 4:38.40 | 4:40.43 | 20890 | 41932 3 | 9:19.08 | 4:58.58 | 41933 | 64340 4 | 14:17.66 | 4:18.67 | 64341 | 83757
Характеристики диапазона извлечения и сообщения об ошибках
Выбранный диапазон
Имя файла E:\Torrents\Diary of Dreams - O'Brother Sleep\Diary of Dreams - O'Brother Sleep.wav
Пиковый уровень 100.0 % Скорость извлечения 4.3 X Качество диапазона 99.9 % CRC теста BFFFDB7D CRC копии BFFFDB7D Копирование... OK
Ошибок не произошло
AccurateRip: сводка
Трек 1 : извлечено точно (доверие 5) [C45692E8] (AR v2)Трек 2 : извлечено точно (доверие 5) [A699588F] (AR v2)Трек 3 : извлечено точно (доверие 5) [6026D549] (AR v2)Трек 4 : извлечено точно (доверие 5) [7E6398EF] (AR v2)
Все треки извлечены точно
Конец отчёта
==== Контрольная сумма отчёта 2EBA9F7AE6B3B1E0420E49D0CB7E5D9AD437A45946948A3E43A44F66D35C9C98 ====

2002 - AmoK [EFA 03639-2] 00:21:46

01. Amok
02. Victimized [Upgrade 02]
03. Ex - île [Upgrade 03]
04. Butterfly : Dance! [Upgrade 02]

Отчёт EAC

Exact Audio Copy V1.3 from 2. September 2016
Отчёт EAC об извлечении, выполненном 8. апреля 2017, 23:51
Diary Of Dreams / AmoK
Дисковод: _NEC DVD_RW ND-3500AG Adapter: 1 ID: 0
Режим чтения : ДостоверностьИспользование точного потока : ДаОтключение кэша аудио : ДаИспользование указателей C2 : Нет
Коррекция смещения при чтении : 48Способность читать области Lead-in и Lead-out : НетЗаполнение пропущенных сэмплов тишиной : ДаУдаление блоков с тишиной в начале и конце : НетПри вычислениях CRC использовались нулевые сэмплы : ДаИнтерфейс : Встроенный Win32-интерфейс для Win NT/2000
Выходной формат : Пользовательский кодировщикВыбранный битрейт : 128 kBit/sКачество : ВысокийДобавление ID3-тега : НетУтилита сжатия : C:\Program Files (x86)\Exact Audio Copy\Flac\flac.exeДополнительные параметры : -V -8 %source%
TOC извлечённого CD
Трек | Старт | Длительность | Начальный сектор | Конечный сектор --------------------------------------------------------------------- 1 | 0:00.00 | 5:12.55 | 0 | 23454 2 | 5:12.55 | 5:37.10 | 23455 | 48739 3 | 10:49.65 | 5:50.41 | 48740 | 75030 4 | 16:40.31 | 5:06.02 | 75031 | 97982
Характеристики диапазона извлечения и сообщения об ошибках
Выбранный диапазон
Имя файла E:\Torrents\Diary Of Dreams - AmoK\Diary Of Dreams - AmoK.wav
Копирование прервано
Конец отчёта
==== Контрольная сумма отчёта 1C82E8ADFB3361578ABC5FFD05461555C5B72E10177713E3C3160EC1DFD18024 ====
------------------------------------------------------------
Exact Audio Copy V1.3 from 2. September 2016
Отчёт EAC об извлечении, выполненном 9. апреля 2017, 0:07
Diary Of Dreams / AmoK
Дисковод: _NEC DVD_RW ND-3500AG Adapter: 1 ID: 0
Режим чтения : ДостоверностьИспользование точного потока : ДаОтключение кэша аудио : ДаИспользование указателей C2 : Нет
Коррекция смещения при чтении : 48Способность читать области Lead-in и Lead-out : НетЗаполнение пропущенных сэмплов тишиной : ДаУдаление блоков с тишиной в начале и конце : НетПри вычислениях CRC использовались нулевые сэмплы : ДаИнтерфейс : Встроенный Win32-интерфейс для Win NT/2000
Выходной формат : Пользовательский кодировщикВыбранный битрейт : 128 kBit/sКачество : ВысокийДобавление ID3-тега : НетУтилита сжатия : C:\Program Files (x86)\Exact Audio Copy\Flac\flac.exeДополнительные параметры : -V -8 %source%
TOC извлечённого CD
Трек | Старт | Длительность | Начальный сектор | Конечный сектор --------------------------------------------------------------------- 1 | 0:00.00 | 5:12.55 | 0 | 23454 2 | 5:12.55 | 5:37.10 | 23455 | 48739 3 | 10:49.65 | 5:50.41 | 48740 | 75030 4 | 16:40.31 | 5:06.02 | 75031 | 97982
Характеристики диапазона извлечения и сообщения об ошибках
Выбранный диапазон
Имя файла E:\Torrents\Diary Of Dreams - AmoK\Diary Of Dreams - AmoK.wav
Пиковый уровень 100.0 % Скорость извлечения 4.5 X Качество диапазона 99.9 % CRC теста 1C7F7444 CRC копии 1C7F7444 Копирование... OK
Ошибок не произошло
AccurateRip: сводка
Трек 1 : извлечено точно (доверие 6) [DDD04304] (AR v2)Трек 2 : извлечено точно (доверие 6) [D0EDE6DF] (AR v2)Трек 3 : извлечено точно (доверие 6) [4DBF6EE2] (AR v2)Трек 4 : извлечено точно (доверие 5) [9882A1E4] (AR v2)
Все треки извлечены точно
Конец отчёта
==== Контрольная сумма отчёта 2C0F4055A4FAFF07D9A775193A492597DBB5BBA18F14D6FABBF7929E682261E7 ====

2002 - Freak Perfume [A 047] 01:09:32

01. Traum : A
02. The Curse
03. O'Brother Sleep
04. Chrysalis
05. Traumtänzer
06. Rebellion
07. Bastard
08. Amok
09. She
10. Verdict
11. Play God!
12. She And Her Darkness

Отчёт EAC

Exact Audio Copy V1.0 beta 4 from 7. December 2014
EAC extraction logfile from 22. June 2017, 18:17
Diary Of Dreams / Freak Perfume
Used drive : ASUS BW-12B1LT Adapter: 1 ID: 0
Read mode : SecureUtilize accurate stream : YesDefeat audio cache : YesMake use of C2 pointers : No
Read offset correction : 6Overread into Lead-In and Lead-Out : NoFill up missing offset samples with silence : YesDelete leading and trailing silent blocks : NoNull samples used in CRC calculations : YesUsed interface : Native Win32 interface for Win NT & 2000
Used output format : User Defined EncoderSelected bitrate : 1024 kBit/sQuality : HighAdd ID3 tag : NoCommand line compressor : C:\Program Files (x86)\Exact Audio Copy\Flac\flac.exeAdditional command line options : -V -8 -T "Date=%year%" -T "Genre=%genre%" %source%
TOC of the extracted CD
Track | Start | Length | Start sector | End sector --------------------------------------------------------- 1 | 0:00.00 | 6:09.01 | 0 | 27675 2 | 6:09.01 | 5:34.63 | 27676 | 52788 3 | 11:43.64 | 4:59.68 | 52789 | 75281 4 | 16:43.57 | 6:00.47 | 75282 | 102328 5 | 22:44.29 | 4:46.41 | 102329 | 123819 6 | 27:30.70 | 5:38.47 | 123820 | 149216 7 | 33:09.42 | 4:30.44 | 149217 | 169510 8 | 37:40.11 | 5:12.31 | 169511 | 192941 9 | 42:52.42 | 4:34.37 | 192942 | 213528 10 | 47:27.04 | 6:40.04 | 213529 | 243532 11 | 54:07.08 | 4:58.64 | 243533 | 265946 12 | 59:05.72 | 10:26.25 | 265947 | 312921
Range status and errors
Selected range
Filename F:\Diary Of Deams\2002 - Freak Perfume (A 047)\Diary Of Dreams - Freak Perfume.wav
Peak level 99.3 % Extraction speed 3.7 X Range quality 100.0 % Test CRC 5BDF5FCC Copy CRC 5BDF5FCC Copy OK
No errors occurred
AccurateRip summary
Track 1 accurately ripped (confidence 8) [79B1CD6D] (AR v2)Track 2 accurately ripped (confidence 8) [37617601] (AR v2)Track 3 accurately ripped (confidence 8) [F32998CE] (AR v2)Track 4 accurately ripped (confidence 8) [5EFB7421] (AR v2)Track 5 accurately ripped (confidence 8) [40ADEBD8] (AR v2)Track 6 accurately ripped (confidence 8) [CC443D6A] (AR v2)Track 7 accurately ripped (confidence 8) [C0FCCC5A] (AR v2)Track 8 accurately ripped (confidence 8) [A3526C17] (AR v2)Track 9 accurately ripped (confidence 8) [DA547D95] (AR v2)Track 10 accurately ripped (confidence 8) [9D8391EE] (AR v2)Track 11 accurately ripped (confidence 8) [4B653692] (AR v2)Track 12 accurately ripped (confidence 8) [2229A859] (AR v2)
All tracks accurately ripped
End of status report
---- CUETools DB Plugin V2.1.4
[CTDB TOCID: cedMmr0xnnAApqlHPydRtsXQcIM-] foundSubmit result: already submittedTrack | CTDB Status 1 | (34/34) Accurately ripped 2 | (34/34) Accurately ripped 3 | (34/34) Accurately ripped 4 | (34/34) Accurately ripped 5 | (34/34) Accurately ripped 6 | (34/34) Accurately ripped 7 | (34/34) Accurately ripped 8 | (34/34) Accurately ripped 9 | (34/34) Accurately ripped 10 | (34/34) Accurately ripped 11 | (33/34) Accurately ripped 12 | (33/34) Accurately ripped
==== Log checksum 52AAC833AA9D50C05085ADA1E366825DD652B8A61C8366548CACFF44B74A5661 ====

2003 - Dream Collector [A 096] 01:15:48

01. Stranger Than Rebellion
02. PrisonER
03. Soul Stripper [L.I.M. Strip Mix]
04. O' Brother Sleep [Extended Sleepwalk Mix]
05. The Curse [Freak Edit]
06. Chemicals [Remix]
07. Ex - Ile [Upgrade 03]
08. She [Demonic Mix]
09. Forestown
10. No - Body Left To Blame [Truth - Mix]
11. Now This Is Human
12. People Watcher [L.I.M.Version]
13. Butterfly : Dance! [Upgrade 02]
14. Bladerunner 2001 [Directorґs Cut Remix by Adrian Hates]
15. False Affection | False Creation [1st Version]

Отчёт EAC

Exact Audio Copy V1.0 beta 4 from 7. December 2014
EAC extraction logfile from 22. June 2017, 19:05
Diary Of Dreams / Dream Collector
Used drive : ASUS BW-12B1LT Adapter: 1 ID: 0
Read mode : SecureUtilize accurate stream : YesDefeat audio cache : YesMake use of C2 pointers : No
Read offset correction : 6Overread into Lead-In and Lead-Out : NoFill up missing offset samples with silence : YesDelete leading and trailing silent blocks : NoNull samples used in CRC calculations : YesUsed interface : Native Win32 interface for Win NT & 2000
Used output format : User Defined EncoderSelected bitrate : 1024 kBit/sQuality : HighAdd ID3 tag : NoCommand line compressor : C:\Program Files (x86)\Exact Audio Copy\Flac\flac.exeAdditional command line options : -V -8 -T "Date=%year%" -T "Genre=%genre%" %source%
TOC of the extracted CD
Track | Start | Length | Start sector | End sector --------------------------------------------------------- 1 | 0:00.00 | 2:56.65 | 0 | 13264 2 | 2:56.65 | 4:56.71 | 13265 | 35535 3 | 7:53.61 | 4:15.48 | 35536 | 54708 4 | 12:09.34 | 6:06.61 | 54709 | 82219 5 | 18:16.20 | 4:40.48 | 82220 | 103267 6 | 22:56.68 | 5:52.40 | 103268 | 129707 7 | 28:49.33 | 5:52.52 | 129708 | 156159 8 | 34:42.10 | 4:20.32 | 156160 | 175691 9 | 39:02.42 | 4:29.68 | 175692 | 195934 10 | 43:32.35 | 6:05.42 | 195935 | 223351 11 | 49:38.02 | 5:17.56 | 223352 | 247182 12 | 54:55.58 | 6:32.12 | 247183 | 276594 13 | 61:27.70 | 5:05.49 | 276595 | 299518 14 | 66:33.44 | 4:36.31 | 299519 | 320249 15 | 71:10.00 | 4:38.11 | 320250 | 341110
Range status and errors
Selected range
Filename F:\Diary Of Deams\2003 - Dream Collector (A 096)\Diary Of Dreams - Dream Collector.wav
Peak level 98.9 % Extraction speed 3.8 X Range quality 100.0 % Test CRC AF053DE6 Copy CRC AF053DE6 Copy OK
No errors occurred
AccurateRip summary
Track 1 accurately ripped (confidence 11) [62AF09D6] (AR v2)Track 2 accurately ripped (confidence 11) [5A8346F1] (AR v2)Track 3 accurately ripped (confidence 11) [4A5C997E] (AR v2)Track 4 accurately ripped (confidence 11) [182008D9] (AR v2)Track 5 accurately ripped (confidence 11) [F94B780E] (AR v2)Track 6 accurately ripped (confidence 11) [F84CED53] (AR v2)Track 7 accurately ripped (confidence 11) [498E7274] (AR v2)Track 8 accurately ripped (confidence 11) [4E2B577B] (AR v2)Track 9 accurately ripped (confidence 11) [2B793C3D] (AR v2)Track 10 accurately ripped (confidence 11) [26857813] (AR v2)Track 11 accurately ripped (confidence 11) [C4AAC745] (AR v2)Track 12 accurately ripped (confidence 11) [AE563E82] (AR v2)Track 13 accurately ripped (confidence 11) [979F3A83] (AR v2)Track 14 accurately ripped (confidence 11) [B754F846] (AR v2)Track 15 accurately ripped (confidence 11) [09F0A861] (AR v2)
All tracks accurately ripped
End of status report
---- CUETools DB Plugin V2.1.4
[CTDB TOCID: NnN4LZOet_K9IBKzsqxKODtAR6E-] foundSubmit result: already submittedTrack | CTDB Status 1 | (11/11) Accurately ripped 2 | (11/11) Accurately ripped 3 | (11/11) Accurately ripped 4 | (11/11) Accurately ripped 5 | (11/11) Accurately ripped 6 | (11/11) Accurately ripped 7 | (11/11) Accurately ripped 8 | (11/11) Accurately ripped 9 | (11/11) Accurately ripped 10 | (11/11) Accurately ripped 11 | (11/11) Accurately ripped 12 | (11/11) Accurately ripped 13 | (11/11) Accurately ripped 14 | (11/11) Accurately ripped 15 | (11/11) Accurately ripped
==== Log checksum AD3A91CDC9D433017F810434DC9AB6417F6D23550DF97AB9AA11231EB2E8C841 ====

2003 - Panik Manifesto [A 052] 00:38:38

01. Painkiller
02. PaniK?
03. Soul Stripper
04. Sin Skinner
05. Drama
06. The Scream
07. Monsters And Demons

Отчёт EAC

Exact Audio Copy V1.0 beta 4 from 7. December 2014
EAC extraction logfile from 22. June 2017, 19:33
Diary Of Dreams / Panik Manifesto
Used drive : ASUS BW-12B1LT Adapter: 1 ID: 0
Read mode : SecureUtilize accurate stream : YesDefeat audio cache : YesMake use of C2 pointers : No
Read offset correction : 6Overread into Lead-In and Lead-Out : NoFill up missing offset samples with silence : YesDelete leading and trailing silent blocks : NoNull samples used in CRC calculations : YesUsed interface : Native Win32 interface for Win NT & 2000
Used output format : User Defined EncoderSelected bitrate : 1024 kBit/sQuality : HighAdd ID3 tag : NoCommand line compressor : C:\Program Files (x86)\Exact Audio Copy\Flac\flac.exeAdditional command line options : -V -8 -T "Date=%year%" -T "Genre=%genre%" %source%
TOC of the extracted CD
Track | Start | Length | Start sector | End sector --------------------------------------------------------- 1 | 0:00.00 | 6:36.18 | 0 | 29717 2 | 6:36.18 | 5:33.63 | 29718 | 54755 3 | 12:10.06 | 4:13.03 | 54756 | 73733 4 | 16:23.09 | 6:49.28 | 73734 | 104436 5 | 23:12.37 | 6:15.47 | 104437 | 132608 6 | 29:28.09 | 4:25.59 | 132609 | 152542 7 | 33:53.68 | 4:44.17 | 152543 | 173859
Range status and errors
Selected range
Filename F:\Diary Of Deams\2003 - Panik Manifesto (A 052)\Diary Of Dreams - Panik Manifesto.wav
Peak level 100.0 % Extraction speed 3.1 X Range quality 100.0 % Test CRC E79F6D13 Copy CRC E79F6D13 Copy OK
No errors occurred
AccurateRip summary
Track 1 accurately ripped (confidence 8) [92A0D8B6] (AR v2)Track 2 accurately ripped (confidence 8) [83708862] (AR v2)Track 3 accurately ripped (confidence 8) [4BBAC755] (AR v2)Track 4 accurately ripped (confidence 8) [A17D6666] (AR v2)Track 5 accurately ripped (confidence 8) [CD60C85C] (AR v2)Track 6 accurately ripped (confidence 8) [7D30E2BB] (AR v2)Track 7 accurately ripped (confidence 7) [F08B218B] (AR v2)
All tracks accurately ripped
End of status report
---- CUETools DB Plugin V2.1.4
[CTDB TOCID: q34XXJ5V55HbVA4aQ6zMFYT.gvI-] foundSubmit result: already submittedTrack | CTDB Status 1 | (31/31) Accurately ripped 2 | (31/31) Accurately ripped 3 | (31/31) Accurately ripped 4 | (31/31) Accurately ripped 5 | (31/31) Accurately ripped 6 | (31/31) Accurately ripped 7 | (31/31) Accurately ripped
==== Log checksum EC99AB6C2A1B74E053691EAA4E6D75C1F983DE9F50F18E0852EB8DC18FB89011 ====

2004 - Giftraum [A 073] 00:19:05

01. Giftraum [Skinner Mix]
02. Fallacy
03. UnKind [Keine Atmung]
04. Giftraum [Classical Version]

Отчёт EAC

Exact Audio Copy V1.0 beta 4 from 7. December 2014
EAC extraction logfile from 1. November 2017, 18:42
Diary Of Dreams / Giftraum
Used drive : ASUS BW-12B1LT Adapter: 1 ID: 0
Read mode : SecureUtilize accurate stream : YesDefeat audio cache : YesMake use of C2 pointers : No
Read offset correction : 6Overread into Lead-In and Lead-Out : NoFill up missing offset samples with silence : YesDelete leading and trailing silent blocks : NoNull samples used in CRC calculations : YesUsed interface : Native Win32 interface for Win NT & 2000
Used output format : User Defined EncoderSelected bitrate : 1024 kBit/sQuality : HighAdd ID3 tag : NoCommand line compressor : C:\Program Files (x86)\Exact Audio Copy\Flac\flac.exeAdditional command line options : -8 -V -T "TITLE=%title%" -T "ARTIST=%artist%" -T "ALBUMARTIST=%albumartist%" -T "ALBUM=%albumtitle%" -T "DATE=%year%" -T "TRACKNUMBER=%tracknr%" -T "TRACKTOTAL=%numtracks%" -T "GENRE=%genre%" -T "COMMENT=%comment%" -T "PERFORMER=%albuminterpret%" -T "COMPOSER=%composer%" %source% -o %dest%
TOC of the extracted CD
Track | Start | Length | Start sector | End sector --------------------------------------------------------- 1 | 0:00.00 | 3:54.46 | 0 | 17595 2 | 3:54.46 | 6:09.17 | 17596 | 45287 3 | 10:03.63 | 4:14.50 | 45288 | 64387 4 | 14:18.38 | 4:46.35 | 64388 | 85872
Range status and errors
Selected range
Filename F:\Diary Of Dreams\2004 - Giftraum (A 073)\Diary Of Dreams - Giftraum.wav
Peak level 97.7 % Extraction speed 2.7 X Range quality 100.0 % Test CRC 36FB929A Copy CRC 36FB929A Copy OK
No errors occurred
End of status report
---- CUETools DB Plugin V2.1.4
[CTDB TOCID: 67ArJABazB1aA4W_lrd8xTARbRw-] foundSubmit result: 67ArJABazB1aA4W_lrd8xTARbRw- has been confirmedTrack | CTDB Status 1 | (16/16) Accurately ripped 2 | (16/16) Accurately ripped 3 | (16/16) Accurately ripped 4 | (16/16) Accurately ripped
==== Log checksum 2AA9018E8B7B649BF2B0FB03D118EEE17529064D59FE92F53B06A30B8112E68E ====

2004 - Nigredo [MET 352] 01:13:24

01. Dead Letter
02. Giftraum
03. Kindrom
04. Reign Of Chaus
05. Charma Sleeper
06. Tales Of The Silent City
07. Portrait Of A Cynic
08. UnMensch
09. The Witching Hour
10. Psycho - Logic
11. Krank : Haft
12. Cannibals
13. Mask Of Shame
14. Untitled

Отчёт EAC

Exact Audio Copy V1.0 beta 4 from 7. December 2014
EAC extraction logfile from 22. June 2017, 20:16
Diary Of Dreams / Nigredo
Used drive : ASUS BW-12B1LT Adapter: 1 ID: 0
Read mode : SecureUtilize accurate stream : YesDefeat audio cache : YesMake use of C2 pointers : No
Read offset correction : 6Overread into Lead-In and Lead-Out : NoFill up missing offset samples with silence : YesDelete leading and trailing silent blocks : NoNull samples used in CRC calculations : YesUsed interface : Native Win32 interface for Win NT & 2000
Used output format : User Defined EncoderSelected bitrate : 1024 kBit/sQuality : HighAdd ID3 tag : NoCommand line compressor : C:\Program Files (x86)\Exact Audio Copy\Flac\flac.exeAdditional command line options : -V -8 -T "Date=%year%" -T "Genre=%genre%" %source%
TOC of the extracted CD
Track | Start | Length | Start sector | End sector --------------------------------------------------------- 1 | 0:00.00 | 7:15.12 | 0 | 32636 2 | 7:15.12 | 4:12.15 | 32637 | 51551 3 | 11:27.27 | 5:10.44 | 51552 | 74845 4 | 16:37.71 | 5:33.67 | 74846 | 99887 5 | 22:11.63 | 5:42.42 | 99888 | 125579 6 | 27:54.30 | 5:40.60 | 125580 | 151139 7 | 33:35.15 | 4:36.13 | 151140 | 171852 8 | 38:11.28 | 5:38.53 | 171853 | 197255 9 | 43:50.06 | 4:32.47 | 197256 | 217702 10 | 48:22.53 | 4:43.32 | 217703 | 238959 11 | 53:06.10 | 4:54.17 | 238960 | 261026 12 | 58:00.27 | 5:15.34 | 261027 | 284685 13 | 63:15.61 | 6:56.04 | 284686 | 315889 14 | 70:11.65 | 3:12.30 | 315890 | 330319
Range status and errors
Selected range
Filename F:\Diary Of Deams\2004 - Nigredo (MET 352)\Diary Of Dreams - Nigredo.wav
Peak level 98.4 % Extraction speed 3.8 X Range quality 100.0 % Test CRC E58996B9 Copy CRC E58996B9 Copy OK
No errors occurred
AccurateRip summary
Track 1 accurately ripped (confidence 3) [C0353E8D] (AR v2)Track 2 accurately ripped (confidence 3) [580B152F] (AR v2)Track 3 accurately ripped (confidence 3) [48D48750] (AR v2)Track 4 accurately ripped (confidence 3) [60F53B02] (AR v2)Track 5 accurately ripped (confidence 3) [61E82A54] (AR v2)Track 6 accurately ripped (confidence 3) [46642F1B] (AR v2)Track 7 accurately ripped (confidence 3) [471A0AD7] (AR v2)Track 8 accurately ripped (confidence 3) [BD2C610E] (AR v2)Track 9 accurately ripped (confidence 3) [7579B8FB] (AR v2)Track 10 accurately ripped (confidence 3) [5F3330DE] (AR v2)Track 11 accurately ripped (confidence 3) [F2F76EA1] (AR v2)Track 12 accurately ripped (confidence 3) [02718153] (AR v2)Track 13 accurately ripped (confidence 3) [7A9DB526] (AR v2)Track 14 accurately ripped (confidence 3) [125EC675] (AR v2)
All tracks accurately ripped
End of status report
---- CUETools DB Plugin V2.1.4
[CTDB TOCID: zHN3jFMi1AmScKpGEQx_0.m.PQ4-] foundSubmit result: already submittedTrack | CTDB Status 1 | (5/5) Accurately ripped 2 | (5/5) Accurately ripped 3 | (5/5) Accurately ripped 4 | (5/5) Accurately ripped 5 | (5/5) Accurately ripped 6 | (5/5) Accurately ripped 7 | (5/5) Accurately ripped 8 | (5/5) Accurately ripped 9 | (5/5) Accurately ripped 10 | (5/5) Accurately ripped 11 | (5/5) Accurately ripped 12 | (5/5) Accurately ripped 13 | (5/5) Accurately ripped 14 | (5/5) Accurately ripped
==== Log checksum 4AB92A7803364869690503E853EA5A743C5F58B3A6B7127A96E16B3D5730A12F ====

2005 - Alive [A 086] 01:09:14

01. MenschFeind
02. Reign Of Chaos
03. The Curse
04. Giftraum
05. End Of Flowers
06. Methusalem
07. Chemicals
08. But The Wind Was Stronger
09. Play God!
10. Soul Stripper
11. O' Brother Sleep
12. Traumtänzer
13. AmoK

Отчёт EAC

Exact Audio Copy V1.0 beta 4 from 7. December 2014
EAC extraction logfile from 22. June 2017, 22:55
Diary Of Dreams / Alive
Used drive : ASUS BW-12B1LT Adapter: 1 ID: 0
Read mode : SecureUtilize accurate stream : YesDefeat audio cache : YesMake use of C2 pointers : No
Read offset correction : 6Overread into Lead-In and Lead-Out : NoFill up missing offset samples with silence : YesDelete leading and trailing silent blocks : NoNull samples used in CRC calculations : YesUsed interface : Native Win32 interface for Win NT & 2000
Used output format : User Defined EncoderSelected bitrate : 1024 kBit/sQuality : HighAdd ID3 tag : NoCommand line compressor : C:\Program Files (x86)\Exact Audio Copy\Flac\flac.exeAdditional command line options : -V -8 -T "Date=%year%" -T "Genre=%genre%" %source%
TOC of the extracted CD
Track | Start | Length | Start sector | End sector --------------------------------------------------------- 1 | 0:00.00 | 6:14.08 | 0 | 28057 2 | 6:14.08 | 5:43.22 | 28058 | 53804 3 | 11:57.30 | 5:37.49 | 53805 | 79128 4 | 17:35.04 | 4:18.30 | 79129 | 98508 5 | 21:53.34 | 5:54.25 | 98509 | 125083 6 | 27:47.59 | 5:55.46 | 125084 | 151754 7 | 33:43.30 | 5:36.15 | 151755 | 176969 8 | 39:19.45 | 5:16.09 | 176970 | 200678 9 | 44:35.54 | 5:19.05 | 200679 | 224608 10 | 49:54.59 | 4:16.74 | 224609 | 243882 11 | 54:11.58 | 5:00.44 | 243883 | 266426 12 | 59:12.27 | 6:04.33 | 266427 | 293759 13 | 65:16.60 | 3:57.53 | 293760 | 311587
Range status and errors
Selected range
Filename F:\Diary Of Deams\2005 - Alive (A 086)\Diary Of Dreams - Alive.wav
Peak level 96.6 % Extraction speed 3.5 X Range quality 100.0 % Test CRC 6452F72F Copy CRC 6452F72F Copy OK
No errors occurred
AccurateRip summary
Track 1 accurately ripped (confidence 10) [67DE82A4] (AR v2)Track 2 accurately ripped (confidence 10) [58F6EE01] (AR v2)Track 3 accurately ripped (confidence 10) [88FBFB27] (AR v2)Track 4 accurately ripped (confidence 10) [41358109] (AR v2)Track 5 accurately ripped (confidence 10) [39566608] (AR v2)Track 6 accurately ripped (confidence 10) [2EF94D1A] (AR v2)Track 7 accurately ripped (confidence 10) [143FA166] (AR v2)Track 8 accurately ripped (confidence 10) [53FFF263] (AR v2)Track 9 accurately ripped (confidence 10) [416E6020] (AR v2)Track 10 accurately ripped (confidence 10) [FAF75531] (AR v2)Track 11 accurately ripped (confidence 10) [FC87A4CC] (AR v2)Track 12 accurately ripped (confidence 10) [04D7CBB1] (AR v2)Track 13 accurately ripped (confidence 10) [C173A46B] (AR v2)
All tracks accurately ripped
End of status report
---- CUETools DB Plugin V2.1.4
[CTDB TOCID: DkhRchEneuj3YjHosHdT3fwKcF0-] foundSubmit result: already submittedTrack | CTDB Status 1 | (13/14) Accurately ripped, or (1/14) differs in 61 samples @00:10:35,00:49:37,01:31:74,02:46:61-02:46:62,05:24:33,06:03:69-06:03:70,06:13:43-06:13:44 2 | (14/14) Accurately ripped 3 | (13/14) Accurately ripped 4 | (14/14) Accurately ripped 5 | (13/14) Accurately ripped 6 | (14/14) Accurately ripped 7 | (13/14) Accurately ripped 8 | (13/14) Accurately ripped 9 | (13/14) Accurately ripped 10 | (14/14) Accurately ripped 11 | (14/14) Accurately ripped 12 | (14/14) Accurately ripped 13 | (14/14) Accurately ripped
==== Log checksum CDE0DA564FC06EABABD71EB9CFFBA03722F0167DDBE681DCF21149AEA1A73957 ====

2005 - MenschFeind [A 081] 00:41:46

01. MenschFeind
02. Haus Der Stille
03. Day - X - Relic
04. Killers
05. Treibsand
06. The Cage
07. Pentaphobia

Отчёт EAC

Exact Audio Copy V1.0 beta 4 from 7. December 2014
EAC extraction logfile from 23. June 2017, 1:26
Diary Of Dreams / MenschFeind
Used drive : ASUS BW-12B1LT Adapter: 1 ID: 0
Read mode : SecureUtilize accurate stream : YesDefeat audio cache : YesMake use of C2 pointers : No
Read offset correction : 6Overread into Lead-In and Lead-Out : NoFill up missing offset samples with silence : YesDelete leading and trailing silent blocks : NoNull samples used in CRC calculations : YesUsed interface : Native Win32 interface for Win NT & 2000
Used output format : User Defined EncoderSelected bitrate : 1024 kBit/sQuality : HighAdd ID3 tag : NoCommand line compressor : C:\Program Files (x86)\Exact Audio Copy\Flac\flac.exeAdditional command line options : -V -8 -T "Date=%year%" -T "Genre=%genre%" %source%
TOC of the extracted CD
Track | Start | Length | Start sector | End sector --------------------------------------------------------- 1 | 0:00.00 | 6:04.65 | 0 | 27364 2 | 6:04.65 | 5:47.64 | 27365 | 53453 3 | 11:52.54 | 5:16.18 | 53454 | 77171 4 | 17:08.72 | 6:15.47 | 77172 | 105343 5 | 23:24.44 | 5:03.55 | 105344 | 128123 6 | 28:28.24 | 5:29.12 | 128124 | 152810 7 | 33:57.36 | 7:48.19 | 152811 | 187929
Range status and errors
Selected range
Filename F:\Diary Of Deams\2005 - Menschfeind (A 081)\Diary Of Dreams - MenschFeind.wav
Peak level 96.6 % Extraction speed 3.2 X Range quality 100.0 % Test CRC 44F2AE3D Copy CRC 44F2AE3D Copy OK
No errors occurred
AccurateRip summary
Track 1 accurately ripped (confidence 15) [2D3AD89F] (AR v2)Track 2 accurately ripped (confidence 15) [E197C88E] (AR v2)Track 3 accurately ripped (confidence 15) [7374FEA8] (AR v2)Track 4 accurately ripped (confidence 15) [E679D54A] (AR v2)Track 5 accurately ripped (confidence 15) [A4ADBC77] (AR v2)Track 6 accurately ripped (confidence 15) [1924696B] (AR v2)Track 7 accurately ripped (confidence 14) [A555BC44] (AR v2)
All tracks accurately ripped
End of status report
---- CUETools DB Plugin V2.1.4
[CTDB TOCID: sl_fJxDNznKDi9BIIwmb0F5N6t8-] foundSubmit result: already submittedTrack | CTDB Status 1 | (22/29) Accurately ripped, or (6/29) differs in 2154 samples @06:04:53-06:04:55 2 | (29/29) Accurately ripped 3 | (23/29) Accurately ripped, or (6/29) differs in 2140 samples @05:16:15-05:16:17 4 | (29/29) Accurately ripped 5 | (23/29) Accurately ripped, or (6/29) differs in 1074 samples @05:03:53-05:03:54 6 | (29/29) Accurately ripped 7 | (28/29) Accurately ripped
==== Log checksum DE9201240D3BA9F5F2ADA186C0F04BE377C8407C4C4BA5187E5372AA1E1AD3FC ====

2007 - Nekrolog 43 [A 110] 01:11:47

01. Nekrolog 43
02. The Plague
03. Son Of A Thief
04. Tears Of Joy
05. UnWanted?
06. Matching Lives
07. Remedy Child
08. Malice
09. The Darkest Of All Hours
10. Congratulations
11. Hypo]CrypticK[al
12. AlLone
13. The Valley

Отчёт EAC

Exact Audio Copy V1.0 beta 4 from 7. December 2014
EAC extraction logfile from 23. June 2017, 10:21
Diary Of Dreams / Nekrolog 43
Used drive : ASUS BW-12B1LT Adapter: 1 ID: 0
Read mode : SecureUtilize accurate stream : YesDefeat audio cache : YesMake use of C2 pointers : No
Read offset correction : 6Overread into Lead-In and Lead-Out : NoFill up missing offset samples with silence : YesDelete leading and trailing silent blocks : NoNull samples used in CRC calculations : YesUsed interface : Native Win32 interface for Win NT & 2000
Used output format : User Defined EncoderSelected bitrate : 1024 kBit/sQuality : HighAdd ID3 tag : NoCommand line compressor : C:\Program Files (x86)\Exact Audio Copy\Flac\flac.exeAdditional command line options : -V -8 -T "Date=%year%" -T "Genre=%genre%" %source%
TOC of the extracted CD
Track | Start | Length | Start sector | End sector --------------------------------------------------------- 1 | 0:00.00 | 7:05.59 | 0 | 31933 2 | 7:05.59 | 4:54.50 | 31934 | 54033 3 | 12:00.34 | 5:31.32 | 54034 | 78890 4 | 17:31.66 | 5:20.74 | 78891 | 102964 5 | 22:52.65 | 4:18.45 | 102965 | 122359 6 | 27:11.35 | 7:00.21 | 122360 | 153880 7 | 34:11.56 | 4:56.57 | 153881 | 176137 8 | 39:08.38 | 5:10.61 | 176138 | 199448 9 | 44:19.24 | 4:19.20 | 199449 | 218893 10 | 48:38.44 | 6:41.40 | 218894 | 249008 11 | 55:20.09 | 5:36.44 | 249009 | 274252 12 | 60:56.53 | 4:09.21 | 274253 | 292948 13 | 65:05.74 | 6:40.47 | 292949 | 322995
Range status and errors
Selected range
Filename F:\Diary Of Deams\2007 - Nekrolog 43 (A 110)\Diary Of Dreams - Nekrolog 43.wav
Peak level 97.5 % Extraction speed 3.8 X Range quality 100.0 % Test CRC B3BCCA2B Copy CRC B3BCCA2B Copy OK
No errors occurred
AccurateRip summary
Track 1 accurately ripped (confidence 18) [7F1D303F] (AR v2)Track 2 accurately ripped (confidence 18) [EDB55D98] (AR v2)Track 3 accurately ripped (confidence 18) [82B7987B] (AR v2)Track 4 accurately ripped (confidence 18) [C9766301] (AR v2)Track 5 accurately ripped (confidence 18) [72351909] (AR v2)Track 6 accurately ripped (confidence 18) [B752A5BC] (AR v2)Track 7 accurately ripped (confidence 18) [8125A1B6] (AR v2)Track 8 accurately ripped (confidence 18) [8336ECCB] (AR v2)Track 9 accurately ripped (confidence 18) [7EA9B998] (AR v2)Track 10 accurately ripped (confidence 18) [FCFAE509] (AR v2)Track 11 accurately ripped (confidence 18) [1D72DB6C] (AR v2)Track 12 accurately ripped (confidence 18) [6B64AA51] (AR v2)Track 13 accurately ripped (confidence 18) [D9760A60] (AR v2)
All tracks accurately ripped
End of status report
---- CUETools DB Plugin V2.1.4
[CTDB TOCID: .G5VrTu6gMzRQHc83VxZyk2Y2Bs-] foundSubmit result: already submittedTrack | CTDB Status 1 | (33/33) Accurately ripped 2 | (33/33) Accurately ripped 3 | (33/33) Accurately ripped 4 | (33/33) Accurately ripped 5 | (33/33) Accurately ripped 6 | (33/33) Accurately ripped 7 | (33/33) Accurately ripped 8 | (33/33) Accurately ripped 9 | (33/33) Accurately ripped 10 | (33/33) Accurately ripped 11 | (33/33) Accurately ripped 12 | (33/33) Accurately ripped 13 | (33/33) Accurately ripped
==== Log checksum 847556E6BF64FE7B9B93F6BE396585A672EB740727587D0B09773E9018094172 ====

2009 - [If] [A 111] 01:05:03

01. The Wedding
02. Requiem 4.21
03. Odyssey Asylum
04. Poison Breed
05. Wahn!Sinn?
06. The Colors Of Grey
07. Choir Hotel
08. The Chain
09. King Of Nowhere
10. 21 Grams Of Nothing
11. Mind Over Matter
12. Kingdom Of Greed

Отчёт EAC

Exact Audio Copy V1.0 beta 4 from 7. December 2014
EAC extraction logfile from 1. November 2017, 19:22
Diary Of Dreams / (if)
Used drive : ASUS BW-12B1LT Adapter: 1 ID: 0
Read mode : SecureUtilize accurate stream : YesDefeat audio cache : YesMake use of C2 pointers : No
Read offset correction : 6Overread into Lead-In and Lead-Out : NoFill up missing offset samples with silence : YesDelete leading and trailing silent blocks : NoNull samples used in CRC calculations : YesUsed interface : Native Win32 interface for Win NT & 2000
Used output format : User Defined EncoderSelected bitrate : 1024 kBit/sQuality : HighAdd ID3 tag : NoCommand line compressor : C:\Program Files (x86)\Exact Audio Copy\Flac\flac.exeAdditional command line options : -8 -V -T "TITLE=%title%" -T "ARTIST=%artist%" -T "ALBUMARTIST=%albumartist%" -T "ALBUM=%albumtitle%" -T "DATE=%year%" -T "TRACKNUMBER=%tracknr%" -T "TRACKTOTAL=%numtracks%" -T "GENRE=%genre%" -T "COMMENT=%comment%" -T "PERFORMER=%albuminterpret%" -T "COMPOSER=%composer%" %source% -o %dest%
TOC of the extracted CD
Track | Start | Length | Start sector | End sector --------------------------------------------------------- 1 | 0:00.00 | 5:46.60 | 0 | 26009 2 | 5:46.60 | 5:30.61 | 26010 | 50820 3 | 11:17.46 | 4:38.60 | 50821 | 71730 4 | 15:56.31 | 4:49.49 | 71731 | 93454 5 | 20:46.05 | 4:40.38 | 93455 | 114492 6 | 25:26.43 | 6:40.28 | 114493 | 144520 7 | 32:06.71 | 6:16.68 | 144521 | 172788 8 | 38:23.64 | 5:03.70 | 172789 | 195583 9 | 43:27.59 | 5:13.03 | 195584 | 219061 10 | 48:40.62 | 4:04.25 | 219062 | 237386 11 | 52:45.12 | 7:00.21 | 237387 | 268907 12 | 59:45.33 | 5:17.39 | 268908 | 292721
Range status and errors
Selected range
Filename F:\Diary Of Dreams\2009 - (if) (A 111)\Diary Of Dreams - (if).wav
Peak level 97.7 % Extraction speed 3.6 X Range quality 100.0 % Test CRC 48D52770 Copy CRC 48D52770 Copy OK
No errors occurred
End of status report
---- CUETools DB Plugin V2.1.4
[CTDB TOCID: LlOsJKvPpe5AQPJPkWhjNEFJf.U-] foundSubmit result: already submittedTrack | CTDB Status 1 | (41/41) Accurately ripped 2 | (41/41) Accurately ripped 3 | (41/41) Accurately ripped 4 | (41/41) Accurately ripped 5 | (41/41) Accurately ripped 6 | (41/41) Accurately ripped 7 | (41/41) Accurately ripped 8 | (40/41) Accurately ripped 9 | (40/41) Accurately ripped 10 | (41/41) Accurately ripped 11 | (41/41) Accurately ripped 12 | (41/41) Accurately ripped
==== Log checksum 1DA55BD0EBE9F7763F149A3C81FF5611C805C4572F033973F35C704EBDF4E114 ====

2009 - [If] [IROND CD 09-1570] 01:05:03

01. The Wedding
02. Requiem 4.21
03. Odyssey Asylum
04. Poison Breed
05. Wahn!Sinn?
06. The Colors Of Grey
07. Choir Hotel
08. The Chain
09. King Of Nowhere
10. 21 Grams Of Nothing
11. Mind Over Matter
12. Kingdom Of Greed

Отчёт EAC

Exact Audio Copy V1.0 beta 4 from 7. December 2014
EAC extraction logfile from 30. July 2017, 12:15
Diary Of Dreams / (if)
Used drive : ASUS BW-12B1LT Adapter: 1 ID: 0
Read mode : SecureUtilize accurate stream : YesDefeat audio cache : YesMake use of C2 pointers : No
Read offset correction : 6Overread into Lead-In and Lead-Out : NoFill up missing offset samples with silence : YesDelete leading and trailing silent blocks : NoNull samples used in CRC calculations : YesUsed interface : Native Win32 interface for Win NT & 2000
Used output format : User Defined EncoderSelected bitrate : 1024 kBit/sQuality : HighAdd ID3 tag : NoCommand line compressor : C:\Program Files (x86)\Exact Audio Copy\Flac\flac.exeAdditional command line options : -V -8 -T "Date=%year%" -T "Genre=%genre%" %source%
TOC of the extracted CD
Track | Start | Length | Start sector | End sector --------------------------------------------------------- 1 | 0:00.00 | 5:46.60 | 0 | 26009 2 | 5:46.60 | 5:30.61 | 26010 | 50820 3 | 11:17.46 | 4:38.60 | 50821 | 71730 4 | 15:56.31 | 4:49.49 | 71731 | 93454 5 | 20:46.05 | 4:40.38 | 93455 | 114492 6 | 25:26.43 | 6:40.28 | 114493 | 144520 7 | 32:06.71 | 6:16.68 | 144521 | 172788 8 | 38:23.64 | 5:03.70 | 172789 | 195583 9 | 43:27.59 | 5:13.03 | 195584 | 219061 10 | 48:40.62 | 4:04.25 | 219062 | 237386 11 | 52:45.12 | 7:00.21 | 237387 | 268907 12 | 59:45.33 | 5:17.39 | 268908 | 292721
Range status and errors
Selected range
Filename F:\Diary Of Deams\2009 - (if) (IROND CD 09-1570)\Diary Of Dreams - (if).wav
Peak level 97.7 % Extraction speed 9.2 X Range quality 100.0 % Test CRC A6D9B326 Copy CRC A6D9B326 Copy OK
No errors occurred
End of status report
---- CUETools DB Plugin V2.1.4
[CTDB TOCID: LlOsJKvPpe5AQPJPkWhjNEFJf.U-] foundSubmit result: already submittedTrack | CTDB Status 1 | (36/36) Accurately ripped 2 | (36/36) Accurately ripped 3 | (36/36) Accurately ripped 4 | (36/36) Accurately ripped 5 | (36/36) Accurately ripped 6 | (36/36) Accurately ripped 7 | (36/36) Accurately ripped 8 | (35/36) Accurately ripped 9 | (35/36) Accurately ripped 10 | (36/36) Accurately ripped 11 | (36/36) Accurately ripped 12 | (36/36) Accurately ripped
==== Log checksum 1B7815843C115D795F6674CCECD2E503BB4599E102D036E8F1E33EB6E968F958 ====

2011 - Ego : X [GRR 131] 01:00:08

01. Into X
02. Undividable
03. Lebenslang
04. Grey The Blue
05. Element I : Zeitgeist
06. Immerdar
07. Push Me
08. Echo In Me [X - Version]
09. Splinter
10. Element V : Resignation
11. Mein - Eid
12. Fateful Decoy
13. Weh : Mut
14. Out Of X

Отчёт EAC

Exact Audio Copy V1.0 beta 4 from 7. December 2014
EAC extraction logfile from 30. July 2017, 13:31
Diary Of Dreams / Ego:X
Used drive : ASUS BW-12B1LT Adapter: 1 ID: 0
Read mode : SecureUtilize accurate stream : YesDefeat audio cache : YesMake use of C2 pointers : No
Read offset correction : 6Overread into Lead-In and Lead-Out : NoFill up missing offset samples with silence : YesDelete leading and trailing silent blocks : NoNull samples used in CRC calculations : YesUsed interface : Native Win32 interface for Win NT & 2000
Used output format : User Defined EncoderSelected bitrate : 1024 kBit/sQuality : HighAdd ID3 tag : NoCommand line compressor : C:\Program Files (x86)\Exact Audio Copy\Flac\flac.exeAdditional command line options : -V -8 -T "Date=%year%" -T "Genre=%genre%" %source%
TOC of the extracted CD
Track | Start | Length | Start sector | End sector --------------------------------------------------------- 1 | 0:00.00 | 2:48.06 | 0 | 12605 2 | 2:48.06 | 3:53.15 | 12606 | 30095 3 | 6:41.21 | 4:49.31 | 30096 | 51801 4 | 11:30.52 | 5:46.68 | 51802 | 77819 5 | 17:17.45 | 2:12.51 | 77820 | 87770 6 | 19:30.21 | 4:49.43 | 87771 | 109488 7 | 24:19.64 | 4:32.44 | 109489 | 129932 8 | 28:52.33 | 3:55.35 | 129933 | 147592 9 | 32:47.68 | 4:39.16 | 147593 | 168533 10 | 37:27.09 | 2:05.04 | 168534 | 177912 11 | 39:32.13 | 5:39.25 | 177913 | 203362 12 | 45:11.38 | 6:38.42 | 203363 | 233254 13 | 51:50.05 | 5:02.51 | 233255 | 255955 14 | 56:52.56 | 3:14.57 | 255956 | 270562
Range status and errors
Selected range
Filename F:\Diary Of Deams\2011 - Ego X (GRR 131)\Diary Of Dreams - Ego-X.wav
Peak level 99.9 % Extraction speed 3.3 X Range quality 99.9 % Test CRC 4DFE71A3 Copy CRC 4DFE71A3 Copy OK
No errors occurred
End of status report
---- CUETools DB Plugin V2.1.4
[CTDB TOCID: JdXvaypP4wUijgjKEJyPNqGzb7c-] foundSubmit result: already submittedTrack | CTDB Status 1 | (3/3) Accurately ripped 2 | (3/3) Accurately ripped 3 | (2/3) Accurately ripped, or (1/3) differs in 256 samples @04:15:21-04:15:23 4 | (3/3) Accurately ripped 5 | (3/3) Accurately ripped 6 | (3/3) Accurately ripped 7 | (3/3) Accurately ripped 8 | (3/3) Accurately ripped 9 | (3/3) Accurately ripped 10 | (3/3) Accurately ripped 11 | (3/3) Accurately ripped 12 | (3/3) Accurately ripped 13 | (3/3) Accurately ripped 14 | (3/3) Accurately ripped
==== Log checksum E2FCDD8DA3A17F20D7D6C7AF950CBD7645230598EBD6043843ECDCFC8057933C ====

2011 - Ego : X [Limited Edition] [A 124] 2CD 01:27:31

CD 1 - 01:09:31

01. Into X
02. Undividable
03. Lebenslang
04. Element I : Zeitgeist
05. Grey The Blue
06. Immerdar
07. Element II : Illusion
08. Diary Of Dreams feat Amelia Brightman - Push Me
09. Element III : Stagnation
10. Echo In Me [X - Version]
11. Element IV : Angst
12. Mein - Eid
13. Splinter
14. Element V : Resignation
15. Fateful Decoy
16. Weh : Mut
17. Out Of X

Отчёт EAC

Exact Audio Copy V1.0 beta 2 from 29. April 2011
Отчёт EAC об извлечении, выполненном 8. сентября 2011, 23:05
Diary of Dreams / Ego:X X1
Дисковод: HL-DT-STDVD-RAM GSA-H20L Adapter: 1 ID: 0
Режим чтения : ДостоверностьИспользование точного потока : ДаОтключение кэша аудио : ДаИспользование указателей C2 : Нет
Коррекция смещения при чтении : 102Способность читать области Lead-in и Lead-out : НетЗаполнение пропущенных сэмплов тишиной : ДаУдаление блоков с тишиной в начале и конце : НетПри вычислениях CRC использовались нулевые сэмплы : ДаИнтерфейс : Встроенный Win32-интерфейс для Win NT/2000
Выходной формат : Пользовательский кодировщикВыбранный битрейт : 768 kBit/sКачество : ВысокийДобавление ID3-тега : НетУтилита сжатия : C:\Program Files\Exact Audio Copy\FLAC\FLAC.EXEДополнительные параметры : -V -8 -T "Date=%year%" -T "Genre=%genre%" %source%
TOC извлечённого CD
Трек | Старт | Длительность | Начальный сектор | Конечный сектор --------------------------------------------------------------------- 1 | 0:00.00 | 2:48.32 | 0 | 12631 2 | 2:48.32 | 3:54.03 | 12632 | 30184 3 | 6:42.35 | 4:49.65 | 30185 | 51924 4 | 11:32.25 | 2:13.61 | 51925 | 61960 5 | 13:46.11 | 5:48.58 | 61961 | 88118 6 | 19:34.69 | 4:50.29 | 88119 | 109897 7 | 24:25.23 | 2:56.43 | 109898 | 123140 8 | 27:21.66 | 4:34.03 | 123141 | 143693 9 | 31:55.69 | 2:49.44 | 143694 | 156412 10 | 34:45.38 | 3:56.00 | 156413 | 174112 11 | 38:41.38 | 3:25.59 | 174113 | 189546 12 | 42:07.22 | 5:40.04 | 189547 | 215050 13 | 47:47.26 | 4:39.18 | 215051 | 235993 14 | 52:26.44 | 2:05.64 | 235994 | 245432 15 | 54:32.33 | 6:39.14 | 245433 | 275371 16 | 61:11.47 | 5:04.24 | 275372 | 298195 17 | 66:15.71 | 3:14.71 | 298196 | 312816
Характеристики диапазона извлечения и сообщения об ошибках
Выбранный диапазон
Имя файла Z:\Diary of Dreams - Ego-X X1.wav
Пиковый уровень 99.9 % Скорость извлечения 3.0 X Качество диапазона 99.9 % CRC теста B7B6EAA8 CRC копии B7B6EAA8 Копирование... OK
Ошибок не произошло
Конец отчёта
==== Контрольная сумма отчёта 448A5E71FCB89902AFCD6B41A28E179AA80448371CF67B3CEDFCDE5CD1C33258 ====

CD 2 - 00:18:01

01. The Return
02. Push Me [X - Version]
03. Undividable [E - Mix]
04. Undividable [Alternative - Mix]

Отчёт EAC

Exact Audio Copy V1.0 beta 2 from 29. April 2011
Отчёт EAC об извлечении, выполненном 8. сентября 2011, 23:24
Diary of Dreams / Ego:X X2
Дисковод: HL-DT-STDVD-RAM GSA-H20L Adapter: 1 ID: 0
Режим чтения : ДостоверностьИспользование точного потока : ДаОтключение кэша аудио : ДаИспользование указателей C2 : Нет
Коррекция смещения при чтении : 102Способность читать области Lead-in и Lead-out : НетЗаполнение пропущенных сэмплов тишиной : ДаУдаление блоков с тишиной в начале и конце : НетПри вычислениях CRC использовались нулевые сэмплы : ДаИнтерфейс : Встроенный Win32-интерфейс для Win NT/2000
Выходной формат : Пользовательский кодировщикВыбранный битрейт : 768 kBit/sКачество : ВысокийДобавление ID3-тега : НетУтилита сжатия : C:\Program Files\Exact Audio Copy\FLAC\FLAC.EXEДополнительные параметры : -V -8 -T "Date=%year%" -T "Genre=%genre%" %source%
TOC извлечённого CD
Трек | Старт | Длительность | Начальный сектор | Конечный сектор --------------------------------------------------------------------- 1 | 0:00.00 | 4:55.51 | 0 | 22175 2 | 4:55.51 | 4:34.23 | 22176 | 42748 3 | 9:29.74 | 4:31.47 | 42749 | 63120 4 | 14:01.46 | 3:58.74 | 63121 | 81044
Характеристики диапазона извлечения и сообщения об ошибках
Выбранный диапазон
Имя файла Z:\Diary of Dreams - Ego-X X2.wav
Пиковый уровень 99.9 % Скорость извлечения 2.1 X Качество диапазона 100.0 % CRC теста 7AFA75AD CRC копии 7AFA75AD Копирование... OK
Ошибок не произошло
Конец отчёта
==== Контрольная сумма отчёта EE63CDA3B22518A6C34B2AD9E16F661274096F834CAD45904E773CE7065753D2 ====

2012 - Dream Collector II [A 130] 01:09:29

01. Kalt! [Ghost Track]
02. Undividable [DCII E - Mix Edit]
03. The Plague [Vers. N4 - 4 DCII Edit]
04. The Wedding [DCII Edit]
05. MenschFeind [DCII Version]
06. Giftraum [DCII Version]
07. UnWanted? [DCII Edit]
08. The Return [DCII Dark Edit]
09. Never Tell The Widow [Bonus Track]
10. Splinter [Original Version]
11. Psycho - Logic [Alternative Version]
12. Out Of My World [Bonus Track]
13. King Of Nowhere [Club Mix DCII Edit]
14. Grey The Blue [DCII Version]
15. Element IV : Angst [DCII Version]

Отчёт EAC

Exact Audio Copy V1.0 beta 4 from 7. December 2014
EAC extraction logfile from 23. June 2017, 11:05
Diary Of Dreams / Dream Collector II
Used drive : ASUS BW-12B1LT Adapter: 1 ID: 0
Read mode : SecureUtilize accurate stream : YesDefeat audio cache : YesMake use of C2 pointers : No
Read offset correction : 6Overread into Lead-In and Lead-Out : NoFill up missing offset samples with silence : YesDelete leading and trailing silent blocks : NoNull samples used in CRC calculations : YesUsed interface : Native Win32 interface for Win NT & 2000
Used output format : User Defined EncoderSelected bitrate : 1024 kBit/sQuality : HighAdd ID3 tag : NoCommand line compressor : C:\Program Files (x86)\Exact Audio Copy\Flac\flac.exeAdditional command line options : -V -8 -T "Date=%year%" -T "Genre=%genre%" %source%
TOC of the extracted CD
Track | Start | Length | Start sector | End sector --------------------------------------------------------- 1 | 0:00.00 | 3:13.05 | 0 | 14479 2 | 3:13.05 | 4:30.53 | 14480 | 34782 3 | 7:43.58 | 4:27.73 | 34783 | 54880 4 | 12:11.56 | 5:06.19 | 54881 | 77849 5 | 17:18.00 | 4:26.24 | 77850 | 97823 6 | 21:44.24 | 3:59.19 | 97824 | 115767 7 | 25:43.43 | 3:57.50 | 115768 | 133592 8 | 29:41.18 | 4:53.38 | 133593 | 155605 9 | 34:34.56 | 6:31.53 | 155606 | 184983 10 | 41:06.34 | 4:46.59 | 184984 | 206492 11 | 45:53.18 | 6:41.12 | 206493 | 236579 12 | 52:34.30 | 5:14.21 | 236580 | 260150 13 | 57:48.51 | 4:12.26 | 260151 | 279076 14 | 62:01.02 | 4:16.28 | 279077 | 298304 15 | 66:17.30 | 3:11.14 | 298305 | 312643
Range status and errors
Selected range
Filename F:\Diary Of Deams\2012 - Dream Collector II (A 130)\Diary Of Dreams - Dream Collector II.wav
Peak level 100.0 % Extraction speed 3.7 X Range quality 99.9 % Test CRC B6DE8CE1 Copy CRC B6DE8CE1 Copy OK
No errors occurred
AccurateRip summary
Track 1 accurately ripped (confidence 9) [EFB27833] (AR v2)Track 2 accurately ripped (confidence 9) [2F672468] (AR v2)Track 3 accurately ripped (confidence 9) [6101F594] (AR v2)Track 4 accurately ripped (confidence 9) [1E42B0BD] (AR v2)Track 5 accurately ripped (confidence 9) [B724B7E0] (AR v2)Track 6 accurately ripped (confidence 9) [46ABF548] (AR v2)Track 7 accurately ripped (confidence 9) [DADC620A] (AR v2)Track 8 accurately ripped (confidence 9) [7DEB0BBD] (AR v2)Track 9 accurately ripped (confidence 9) [150A773C] (AR v2)Track 10 accurately ripped (confidence 9) [C915413C] (AR v2)Track 11 accurately ripped (confidence 9) [AA1B866D] (AR v2)Track 12 accurately ripped (confidence 9) [421725DE] (AR v2)Track 13 accurately ripped (confidence 8) [AF07B995] (AR v2)Track 14 accurately ripped (confidence 9) [7F21E5B0] (AR v2)Track 15 accurately ripped (confidence 9) [98D6F88E] (AR v2)
All tracks accurately ripped
End of status report
---- CUETools DB Plugin V2.1.4
[CTDB TOCID: C28Cjcy7fC2xXFFAyc.ztye85to-] foundSubmit result: C28Cjcy7fC2xXFFAyc.ztye85to- has been confirmedTrack | CTDB Status 1 | (11/11) Accurately ripped 2 | (11/11) Accurately ripped 3 | (11/11) Accurately ripped 4 | (11/11) Accurately ripped 5 | (11/11) Accurately ripped 6 | (11/11) Accurately ripped 7 | (11/11) Accurately ripped 8 | (11/11) Accurately ripped 9 | (11/11) Accurately ripped 10 | (11/11) Accurately ripped 11 | (11/11) Accurately ripped 12 | (11/11) Accurately ripped 13 | (11/11) Accurately ripped 14 | (11/11) Accurately ripped 15 | (11/11) Accurately ripped
==== Log checksum 72A14C32260810BB5C04FE5F77F9FEE387D801E9DABF662E772F3AE8300BAC91 ====

2012 - The Anatomy Of Silence [A 132] 00:43:22

01. Diary Of Dreams feat Torben Wendt - AmoK
02. O' Brother Sleep
03. Butterfly : Dance!
04. Giftraum
05. Immerdar
06. Malice
07. Rumours About Angels
08. She And Her Darkness
09. She
10. Traumtänzer

Отчёт EAC

Exact Audio Copy V1.0 beta 4 from 7. December 2014
EAC extraction logfile from 23. June 2017, 11:37
Diary Of Dreams / The Anatomy Of Silence
Used drive : ASUS BW-12B1LT Adapter: 1 ID: 0
Read mode : SecureUtilize accurate stream : YesDefeat audio cache : YesMake use of C2 pointers : No
Read offset correction : 6Overread into Lead-In and Lead-Out : NoFill up missing offset samples with silence : YesDelete leading and trailing silent blocks : NoNull samples used in CRC calculations : YesUsed interface : Native Win32 interface for Win NT & 2000
Used output format : User Defined EncoderSelected bitrate : 1024 kBit/sQuality : HighAdd ID3 tag : NoCommand line compressor : C:\Program Files (x86)\Exact Audio Copy\Flac\flac.exeAdditional command line options : -V -8 -T "Date=%year%" -T "Genre=%genre%" %source%
TOC of the extracted CD
Track | Start | Length | Start sector | End sector --------------------------------------------------------- 1 | 0:00.00 | 3:47.31 | 0 | 17055 2 | 3:47.31 | 3:25.58 | 17056 | 32488 3 | 7:13.14 | 5:43.28 | 32489 | 58241 4 | 12:56.42 | 3:36.33 | 58242 | 74474 5 | 16:33.00 | 4:42.50 | 74475 | 95674 6 | 21:15.50 | 4:53.49 | 95675 | 117698 7 | 26:09.24 | 3:45.34 | 117699 | 134607 8 | 29:54.58 | 4:29.35 | 134608 | 154817 9 | 34:24.18 | 4:07.47 | 154818 | 173389 10 | 38:31.65 | 4:50.37 | 173390 | 195176
Range status and errors
Selected range
Filename F:\Diary Of Deams\2012 - The Anatomy Of Silence (A 132)\Diary Of Dreams - The Anatomy Of Silence.wav
Peak level 98.8 % Extraction speed 3.2 X Range quality 100.0 % Test CRC 2EBEF791 Copy CRC 2EBEF791 Copy OK
No errors occurred
AccurateRip summary
Track 1 accurately ripped (confidence 12) [AA20DBB2] (AR v2)Track 2 accurately ripped (confidence 12) [0D3CE7D8] (AR v2)Track 3 accurately ripped (confidence 12) [A924EB27] (AR v2)Track 4 accurately ripped (confidence 12) [702A64D1] (AR v2)Track 5 accurately ripped (confidence 12) [FB86954F] (AR v2)Track 6 accurately ripped (confidence 12) [761302AF] (AR v2)Track 7 accurately ripped (confidence 12) [BED34C1E] (AR v2)Track 8 accurately ripped (confidence 12) [54626A3F] (AR v2)Track 9 accurately ripped (confidence 12) [967588B8] (AR v2)Track 10 accurately ripped (confidence 12) [95DFED17] (AR v2)
All tracks accurately ripped
End of status report
---- CUETools DB Plugin V2.1.4
[CTDB TOCID: wXRNYQkDcO5tYaVbpcTT3pNm8AQ-] foundSubmit result: wXRNYQkDcO5tYaVbpcTT3pNm8AQ- has been confirmedTrack | CTDB Status 1 | (20/21) Accurately ripped 2 | (21/21) Accurately ripped 3 | (21/21) Accurately ripped 4 | (21/21) Accurately ripped 5 | (21/21) Accurately ripped 6 | (21/21) Accurately ripped 7 | (21/21) Accurately ripped 8 | (21/21) Accurately ripped 9 | (21/21) Accurately ripped 10 | (21/21) Accurately ripped
==== Log checksum 69FEF1B25234472E200FC39495B5D77C6DB13129B6010D91384AFA50DAF04AB5 ====

2014 - Elegies In Darkness [A 136] 01:00:28

01. Malum
02. The Luxury Of Insanity
03. StummKult
04. Dogs Of War
05. A Day In December
06. A Dark Embrace
07. The Game
08. Dream Of A Ghost
09. Daemon
10. House Of Odds
11. The Battle
12. Die Gassen Der Stadt

Отчёт EAC

Exact Audio Copy V1.0 beta 4 from 7. December 2014
EAC extraction logfile from 13. July 2017, 13:47
Diary Of Dreams / Elegies In Darkness
Used drive : ASUS BW-12B1LT Adapter: 1 ID: 0
Read mode : SecureUtilize accurate stream : YesDefeat audio cache : YesMake use of C2 pointers : No
Read offset correction : 6Overread into Lead-In and Lead-Out : NoFill up missing offset samples with silence : YesDelete leading and trailing silent blocks : NoNull samples used in CRC calculations : YesUsed interface : Native Win32 interface for Win NT & 2000
Used output format : User Defined EncoderSelected bitrate : 1024 kBit/sQuality : HighAdd ID3 tag : NoCommand line compressor : C:\Program Files (x86)\Exact Audio Copy\Flac\flac.exeAdditional command line options : -V -8 -T "Date=%year%" -T "Genre=%genre%" %source%
TOC of the extracted CD
Track | Start | Length | Start sector | End sector --------------------------------------------------------- 1 | 0:00.00 | 4:53.25 | 0 | 21999 2 | 4:53.25 | 5:57.31 | 22000 | 48805 3 | 10:50.56 | 4:53.45 | 48806 | 70825 4 | 15:44.26 | 5:26.29 | 70826 | 95304 5 | 21:10.55 | 4:12.27 | 95305 | 114231 6 | 25:23.07 | 6:33.61 | 114232 | 143767 7 | 31:56.68 | 3:53.00 | 143768 | 161242 8 | 35:49.68 | 5:37.37 | 161243 | 186554 9 | 41:27.30 | 6:00.20 | 186555 | 213574 10 | 47:27.50 | 4:16.04 | 213575 | 232778 11 | 51:43.54 | 5:27.40 | 232779 | 257343 12 | 57:11.19 | 3:16.61 | 257344 | 272104
Range status and errors
Selected range
Filename F:\Diary Of Deams\2014 - Elegies In Darkness (A 136)\Diary Of Dreams - Elegies In Darkness.wav
Peak level 98.6 % Extraction speed 8.9 X Range quality 99.9 % Test CRC 05EF63F8 Copy CRC 05EF63F8 Copy OK
No errors occurred
End of status report
---- CUETools DB Plugin V2.1.4
[CTDB TOCID: sIm4cKiCfs9nnIwecA_f8aVMDNc-] foundSubmit result: sIm4cKiCfs9nnIwecA_f8aVMDNc- has been confirmedTrack | CTDB Status 1 | (27/29) Accurately ripped, or (1/29) differs in 6 samples @00:00:07 2 | (29/29) Accurately ripped 3 | (29/29) Accurately ripped 4 | (29/29) Accurately ripped 5 | (29/29) Accurately ripped 6 | (29/29) Accurately ripped 7 | (29/29) Accurately ripped 8 | (29/29) Accurately ripped 9 | (29/29) Accurately ripped 10 | (29/29) Accurately ripped 11 | (28/29) Accurately ripped 12 | (29/29) Accurately ripped
==== Log checksum F6A2BF7F85751E9AAF82322B65F6273081A2C2D2A61A16283ED937B3F2E56529 ====

2015 - Grau Im Licht [A 138] 01:06:29

01. Sinferno
02. Endless Nights
03. Ikarus
04. Krank
05. Die My Phobia
06. Grau Im Licht
07. SinnFlut
08. HomeSick
09. Schuldig!
10. The Hunted
11. MitGift
12. Schwarz

Отчёт EAC

Exact Audio Copy V1.0 beta 4 from 7. December 2014
EAC extraction logfile from 23. June 2017, 12:33
Diary Of Dreams / Grau Im Licht
Used drive : ASUS BW-12B1LT Adapter: 1 ID: 0
Read mode : SecureUtilize accurate stream : YesDefeat audio cache : YesMake use of C2 pointers : No
Read offset correction : 6Overread into Lead-In and Lead-Out : NoFill up missing offset samples with silence : YesDelete leading and trailing silent blocks : NoNull samples used in CRC calculations : YesUsed interface : Native Win32 interface for Win NT & 2000
Used output format : User Defined EncoderSelected bitrate : 1024 kBit/sQuality : HighAdd ID3 tag : NoCommand line compressor : C:\Program Files (x86)\Exact Audio Copy\Flac\flac.exeAdditional command line options : -V -8 -T "Date=%year%" -T "Genre=%genre%" %source%
TOC of the extracted CD
Track | Start | Length | Start sector | End sector --------------------------------------------------------- 1 | 0:00.00 | 5:47.32 | 0 | 26056 2 | 5:47.32 | 4:34.36 | 26057 | 46642 3 | 10:21.68 | 5:56.51 | 46643 | 73393 4 | 16:18.44 | 5:55.12 | 73394 | 100030 5 | 22:13.56 | 4:44.25 | 100031 | 121355 6 | 26:58.06 | 5:25.25 | 121356 | 145755 7 | 32:23.31 | 5:22.22 | 145756 | 169927 8 | 37:45.53 | 4:43.47 | 169928 | 191199 9 | 42:29.25 | 5:33.03 | 191200 | 216177 10 | 48:02.28 | 3:45.06 | 216178 | 233058 11 | 51:47.34 | 5:07.74 | 233059 | 256157 12 | 56:55.33 | 9:33.39 | 256158 | 299171
Range status and errors
Selected range
Filename F:\Diary Of Deams\2015 - Grau Im Licht (A 138)\Diary Of Dreams - Grau Im Licht.wav
Peak level 100.0 % Extraction speed 3.5 X Range quality 99.9 % Test CRC E31048FB Copy CRC E31048FB Copy OK
No errors occurred
AccurateRip summary
Track 1 accurately ripped (confidence 19) [EC4258EA] (AR v2)Track 2 accurately ripped (confidence 19) [3EE61336] (AR v2)Track 3 accurately ripped (confidence 19) [D271C435] (AR v2)Track 4 accurately ripped (confidence 19) [6C482ADA] (AR v2)Track 5 accurately ripped (confidence 19) [4D7B7E1E] (AR v2)Track 6 accurately ripped (confidence 19) [DE8E7720] (AR v2)Track 7 accurately ripped (confidence 19) [AAB5D6D8] (AR v2)Track 8 accurately ripped (confidence 19) [B8F08FAC] (AR v2)Track 9 accurately ripped (confidence 19) [5131309C] (AR v2)Track 10 accurately ripped (confidence 19) [3DD08CFF] (AR v2)Track 11 accurately ripped (confidence 19) [1AA9450C] (AR v2)Track 12 accurately ripped (confidence 18) [30709C67] (AR v2)
All tracks accurately ripped
End of status report
---- CUETools DB Plugin V2.1.4
[CTDB TOCID: TrCYu6UAuhcRuGhbpWvMw67lMDI-] foundSubmit result: TrCYu6UAuhcRuGhbpWvMw67lMDI- has been confirmedTrack | CTDB Status 1 | (51/51) Accurately ripped 2 | (51/51) Accurately ripped 3 | (51/51) Accurately ripped 4 | (51/51) Accurately ripped 5 | (51/51) Accurately ripped 6 | (51/51) Accurately ripped 7 | (51/51) Accurately ripped 8 | (51/51) Accurately ripped 9 | (51/51) Accurately ripped 10 | (51/51) Accurately ripped 11 | (51/51) Accurately ripped 12 | (47/51) Accurately ripped, or (3/51) differs in 41 samples @08:38:22
==== Log checksum 4A801479915679FB4406AE29504D2D6273073E27DB87F24C16A9AF4A9E56BE60 ====

2016 - reLive [A 140] 2CD 01:54:42

CD 1 - 00:54:36

01. Schwarz
02. Sinferno
03. Malum
04. MenschFeind
05. Psycho - Logic
06. Krank
07. Butterfly : Dance!
08. Giftraum
09. Soul Stripper
10. Ikarus
11. Schuldig!

Отчёт EAC

Exact Audio Copy V1.0 beta 4 from 7. December 2014
EAC extraction logfile from 1. November 2017, 22:31
Diary Of Dreams / reLive Disc 1
Used drive : ASUS BW-12B1LT Adapter: 1 ID: 0
Read mode : SecureUtilize accurate stream : YesDefeat audio cache : YesMake use of C2 pointers : No
Read offset correction : 6Overread into Lead-In and Lead-Out : NoFill up missing offset samples with silence : YesDelete leading and trailing silent blocks : NoNull samples used in CRC calculations : YesUsed interface : Native Win32 interface for Win NT & 2000
Used output format : User Defined EncoderSelected bitrate : 1024 kBit/sQuality : HighAdd ID3 tag : NoCommand line compressor : C:\Program Files (x86)\Exact Audio Copy\Flac\flac.exeAdditional command line options : -8 -V -T "TITLE=%title%" -T "ARTIST=%artist%" -T "ALBUMARTIST=%albumartist%" -T "ALBUM=%albumtitle%" -T "DATE=%year%" -T "TRACKNUMBER=%tracknr%" -T "TRACKTOTAL=%numtracks%" -T "GENRE=%genre%" -T "COMMENT=%comment%" -T "PERFORMER=%albuminterpret%" -T "COMPOSER=%composer%" %source% -o %dest%
TOC of the extracted CD
Track | Start | Length | Start sector | End sector --------------------------------------------------------- 1 | 0:00.00 | 2:14.52 | 0 | 10101 2 | 2:14.52 | 5:51.30 | 10102 | 36456 3 | 8:06.07 | 4:55.57 | 36457 | 58638 4 | 13:01.64 | 5:09.10 | 58639 | 81823 5 | 18:10.74 | 4:43.04 | 81824 | 103052 6 | 22:54.03 | 5:50.63 | 103053 | 129365 7 | 28:44.66 | 5:39.51 | 129366 | 154841 8 | 34:24.42 | 4:04.07 | 154842 | 173148 9 | 38:28.49 | 4:23.74 | 173149 | 192947 10 | 42:52.48 | 5:58.36 | 192948 | 219833 11 | 48:51.09 | 5:45.21 | 219834 | 245729
Range status and errors
Selected range
Filename F:\Diary Of Dreams\2016 - reLive (A 140)\Disc 1\Diary Of Dreams - reLive Disc 1.wav
Peak level 99.9 % Extraction speed 7.0 X Range quality 100.0 % Test CRC 734A097A Copy CRC 734A097A Copy OK
No errors occurred
End of status report
---- CUETools DB Plugin V2.1.4
[CTDB TOCID: bKqn2U1MvTdB7oQJy2NZDoIHEZI-] foundSubmit result: bKqn2U1MvTdB7oQJy2NZDoIHEZI- has been confirmedTrack | CTDB Status 1 | (24/24) Accurately ripped 2 | (24/24) Accurately ripped 3 | (24/24) Accurately ripped 4 | (24/24) Accurately ripped 5 | (24/24) Accurately ripped 6 | (24/24) Accurately ripped 7 | (24/24) Accurately ripped 8 | (24/24) Accurately ripped 9 | (24/24) Accurately ripped 10 | (24/24) Accurately ripped 11 | (24/24) Accurately ripped
==== Log checksum FE075378C915064DCCD52CB0285BD2AA6C4981A28D46A7533B449EE515EB148F ====

CD 2 - 01:00:06

01. Choir Hotel
02. Mythology Of Violence
03. The Colors Of Grey
04. Dogs Of War
05. Grau Im Licht
06. A Dark Embrace
07. Endless Nights
08. Undividable
09. The Plague
10. King Of Nowhere
11. Kindrom

Отчёт EAC

Exact Audio Copy V1.0 beta 4 from 7. December 2014
EAC extraction logfile from 1. November 2017, 23:11
Diary Of Dreams / reLive Disc 2
Used drive : ASUS BW-12B1LT Adapter: 1 ID: 0
Read mode : SecureUtilize accurate stream : YesDefeat audio cache : YesMake use of C2 pointers : No
Read offset correction : 6Overread into Lead-In and Lead-Out : NoFill up missing offset samples with silence : YesDelete leading and trailing silent blocks : NoNull samples used in CRC calculations : YesUsed interface : Native Win32 interface for Win NT & 2000
Used output format : User Defined EncoderSelected bitrate : 1024 kBit/sQuality : HighAdd ID3 tag : NoCommand line compressor : C:\Program Files (x86)\Exact Audio Copy\Flac\flac.exeAdditional command line options : -8 -V -T "TITLE=%title%" -T "ARTIST=%artist%" -T "ALBUMARTIST=%albumartist%" -T "ALBUM=%albumtitle%" -T "DATE=%year%" -T "TRACKNUMBER=%tracknr%" -T "TRACKTOTAL=%numtracks%" -T "GENRE=%genre%" -T "COMMENT=%comment%" -T "PERFORMER=%albuminterpret%" -T "COMPOSER=%composer%" %source% -o %dest%
TOC of the extracted CD
Track | Start | Length | Start sector | End sector --------------------------------------------------------- 1 | 0:00.00 | 5:56.19 | 0 | 26718 2 | 5:56.19 | 5:01.13 | 26719 | 49306 3 | 10:57.32 | 6:29.21 | 49307 | 78502 4 | 17:26.53 | 5:23.73 | 78503 | 102800 5 | 22:50.51 | 5:24.07 | 102801 | 127107 6 | 28:14.58 | 6:33.21 | 127108 | 156603 7 | 34:48.04 | 4:35.03 | 156604 | 177231 8 | 39:23.07 | 4:27.32 | 177232 | 197288 9 | 43:50.39 | 5:00.65 | 197289 | 219853 10 | 48:51.29 | 5:09.65 | 219854 | 243093 11 | 54:01.19 | 6:04.57 | 243094 | 270450
Range status and errors
Selected range
Filename F:\Diary Of Dreams\2016 - reLive (A 140)\Disc 2\Diary Of Dreams - reLive Disc 2.wav
Peak level 99.9 % Extraction speed 3.3 X Range quality 100.0 % Test CRC B7967D92 Copy CRC B7967D92 Copy OK
No errors occurred
End of status report
---- CUETools DB Plugin V2.1.4
[CTDB TOCID: ebWTgEoJmxyGueN4vJo2rYAYkxk-] foundSubmit result: ebWTgEoJmxyGueN4vJo2rYAYkxk- has been confirmedTrack | CTDB Status 1 | (24/24) Accurately ripped 2 | (24/24) Accurately ripped 3 | (24/24) Accurately ripped 4 | (24/24) Accurately ripped 5 | (24/24) Accurately ripped 6 | (24/24) Accurately ripped 7 | (24/24) Accurately ripped 8 | (24/24) Accurately ripped 9 | (24/24) Accurately ripped 10 | (24/24) Accurately ripped 11 | (24/24) Accurately ripped
==== Log checksum 34F71D460BA0B80E2DD46FD97D9DE983FCDF720A3D453349F2B9D2AE9BAE0F82 ====

2017 - Hell In Eden [A 143] 01:05:30

01. Made In Shame
02. Epicon
03. Decipher Me
04. Hell In Eden
05. Perfect Halo
06. Beast Of Prey
07. Listen And Scream
08. Traces Of Light
09. Mercy Me
10. Bird Of Passage
11. Sister Sin
12. Nevermore
13. Hiding Rivers

Отчёт EAC

Exact Audio Copy V1.0 beta 4 from 7. December 2014
EAC extraction logfile from 1. November 2017, 20:15
Diary Of Dreams / Hell In Eden
Used drive : ASUS BW-12B1LT Adapter: 1 ID: 0
Read mode : SecureUtilize accurate stream : YesDefeat audio cache : YesMake use of C2 pointers : No
Read offset correction : 6Overread into Lead-In and Lead-Out : NoFill up missing offset samples with silence : YesDelete leading and trailing silent blocks : NoNull samples used in CRC calculations : YesUsed interface : Native Win32 interface for Win NT & 2000
Used output format : User Defined EncoderSelected bitrate : 1024 kBit/sQuality : HighAdd ID3 tag : NoCommand line compressor : C:\Program Files (x86)\Exact Audio Copy\Flac\flac.exeAdditional command line options : -8 -V -T "TITLE=%title%" -T "ARTIST=%artist%" -T "ALBUMARTIST=%albumartist%" -T "ALBUM=%albumtitle%" -T "DATE=%year%" -T "TRACKNUMBER=%tracknr%" -T "TRACKTOTAL=%numtracks%" -T "GENRE=%genre%" -T "COMMENT=%comment%" -T "PERFORMER=%albuminterpret%" -T "COMPOSER=%composer%" %source% -o %dest%
TOC of the extracted CD
Track | Start | Length | Start sector | End sector --------------------------------------------------------- 1 | 0:00.00 | 5:39.36 | 0 | 25460 2 | 5:39.36 | 5:36.18 | 25461 | 50678 3 | 11:15.54 | 4:20.25 | 50679 | 70203 4 | 15:36.04 | 5:24.12 | 70204 | 94515 5 | 21:00.16 | 4:58.61 | 94516 | 116926 6 | 25:59.02 | 4:35.13 | 116927 | 137564 7 | 30:34.15 | 4:58.05 | 137565 | 159919 8 | 35:32.20 | 4:20.34 | 159920 | 179453 9 | 39:52.54 | 5:25.51 | 179454 | 203879 10 | 45:18.30 | 4:39.40 | 203880 | 224844 11 | 49:57.70 | 4:27.72 | 224845 | 244941 12 | 54:25.67 | 5:39.25 | 244942 | 270391 13 | 60:05.17 | 5:24.34 | 270392 | 294725
Range status and errors
Selected range
Filename F:\Diary Of Dreams\2017 - Hell In Eden (A 143)\Diary Of Dreams - Hell In Eden.wav
Peak level 98.8 % Extraction speed 3.4 X Range quality 100.0 % Test CRC CF665444 Copy CRC CF665444 Copy OK
No errors occurred
End of status report
---- CUETools DB Plugin V2.1.4
[CTDB TOCID: vpbbGzudOJYu8yApZo31xQP_Sug-] foundSubmit result: vpbbGzudOJYu8yApZo31xQP_Sug- has been confirmedTrack | CTDB Status 1 | (17/17) Accurately ripped 2 | (17/17) Accurately ripped 3 | (17/17) Accurately ripped 4 | (17/17) Accurately ripped 5 | (17/17) Accurately ripped 6 | (17/17) Accurately ripped 7 | (17/17) Accurately ripped 8 | (17/17) Accurately ripped 9 | (17/17) Accurately ripped 10 | (17/17) Accurately ripped 11 | (17/17) Accurately ripped 12 | (17/17) Accurately ripped 13 | (17/17) Accurately ripped
==== Log checksum C3AF7AD5B13681DCC6722C3B87CF33D9D7CFB29ACD078B095315535B2B52CDA5 ====
--

Об исполнителе (группе)

Немецкая группа Diary Of Dreams, основной креативной силой которой является личность владельца Accession Records Адриана Хейтса (Adrian Hates), по праву считается одним из самых необычных и талантливых коллективов на немецкой "тёмной" сцене.
История Diary of Dreams берет свое начало в конце восьмидесятых, когда Адриан Хейтс только начал разрабатывать музыкальную концепцию своего соло-проекта. С течением времени к нему присоединился гитарист Алистэр Кейн (Alistair Kane), и лишь в 1994 году появляется первый полноформатный , вышедший ла лейбле Dion Fortune - 'Cholymelan', который моментально получает высочайшие оценки не только многочисленных андерграундных изданий и критики, но, что самое главное, потрясающе оптимистичный прием слушателей. И пластинка действительно заслуживала самых высоких похвал, ибо музыкантам удалось сплести воедино интересные электронные аранжировки вкупе с оригинальной гитарной составляющей, философскую, чувственную лирику на английском языке и потрясающе проникновенный голос Хейтса, который очень вкрадчиво и мягко прокрадывается в сознание слушателя, заставляя того сопереживать тем чувствам и (часто весьма нерадостным) эмоциям, которые испытывает музыкант. Одним словом, это был безусловный успех, но в сравнительно узких андерграундных сферах.
Видя столь позитивный отклик на свою работу, но также думая и о расширении аудитории и постепенном выходе из андерграундной известности в "более широкие готические массы", музыканты не стали сидеть сложа руки, а активно занялись написанием материала для своего следующего полноформатника, который вскоре и вышел (в 1996 году) уже на собственном лэйбле Адриана Accession Records. Именно с выходом второго альбома, 'End of Flowers', шестеренки "готического шоу-бизнеса" постепенно пришли в движение и стали крутиться со всевозрастающими оборотами. Причем заслуга в этом не только замечательного музыкального материала второго диска (хотя, собственно, музыка у группы всегда была на высоте), который продолжил и развил традиции успешного дебюта, сколько коммерческой жилке и бизнес-талантам самого Адриана Хейтса, приложившего массу усилий для промоушена и "раскрутки" пластинки в среде готических меломанов. И усилия Accession Records и лично господина Хейтса принесли свои плоды - 'End of Flowers' привлек к творчеству коллектива внимание немалого количества новых слушателей, а также закрепил песни Dairy of Dreams на многочисленных танцплощадках готических клубов и в ротации некоторых радиопередач, посвященных "черной сцене". Также некоторые песни коллектива попали на различные компиляции, что лишь добавило музыкантам известности.
Однако Адриан и Алистэр не позволяли себе расслабиться и уже практически через год выходит третий по счету полноформатный альбом группы под названием 'Bird Without Wings'. Этот релиз уже активно ожидала "подготовленная" предыдущими дисками обширная fan-base, поэтому неудивительно, что продажи альбома намного превысили первоначальные ожидания, а дуэт поехал в серьезное турне в поддержку новорожденного по европейским "городам и весям". Также именно с этого диска пошел единый стиль уникального оформления альбомов Diary Of Dreams, который сохраняется неизменным и поныне. Диск 'Bird Without Wings', без сомнения, стал одним из существенных этапов в истории группы - он принес коллективу широкую известность, еще больше поклонников и огромное количество интервью и хвалебных рецензий в музыкальных журналах по всей Европе.
На гребне этой волны востребованности, в начале 1998 года, Адриан решает расширить состав коллектива (в основном это было необходимо для живых выступлений), для чего в группу приглашаются |Os|mium и Кристиан Бергофф (Christian Berghoff). Привнеся с собой новые свежие идеи и подходы к уже устоявшемуся стилю Diary Of Dreams, музыканты совместными усилиями создали четвертый альбом, 'Psychoma?'. Он получился намного более электронным, нежели предыдущие диски группы, сумев, однако, при этом сохранить уникальный дух и такой знакомый стиль коллектива. Поклонники были в восторге, а продажи ползли вверх. Это уже был весьма серьезный успех, ознаменовавший собой новую веху в долгой истории коллектива.
После выхода 'Psychoma?' Diary Of Dreams на время решают взять небольшой творческий отпуск, ну, а чтобы поклонникам было что слушать долгими зимними ночами в предвкушении нового альбома своих любимцев (ну и чтобы о коллективе не забывали, разумеется, да и лишние несколько тысяч проданных дисков никогда не повредят), Accession Records выпускает эдакий "the best"-диск 'Moments of Bloom', состоящий из ремикшированных/ремастированных композиций с первых четырех альбомов плюс четыре новые песни. Фанаты были в восторге, и новый релиз скрасил им ожидание полноценного альбома…
…который вскоре и увидел свет - в феврале 2000 года. Диск 'One of 18 Angels' сразил поклонников и критику буквально наповал и ознаменовал собой еще один успешный этап в карьере Diary Of Dreams, ибо с песнями (и синглами) с нового альбома группа впервые проникла в немецкие альтернативные чарты, а это уже показатель очень серьезного успеха (как творческого, так и, что для музыкантов намного важнее, коммерческого). Успех нового диска, разумеется, был закреплен интенсивным туром и появлением на многих престижных летних фестивалях, где поклонники очень бурно принимали свою любимую группу. На фоне этого успеха в команде вновь произошли изменения в составе - появился второй вокалист Торбен Вендт (Torben Wendt), который, правда, вскоре уехал в Канаду, а в марте 2001 года к группе присоединилась очаровательная гитаристка Lil'K.
Несмотря на все пертурбации с составом и интенсивную концертную деятельность, Адриан Хэйтс, лидер и mastermind коллектива, не останавливал свою творческую деятельность ни на минуту, в результате чего в этом году есть только что вышедший, уже седьмой по счету, полноформатный релиз Diary of Dreams под названием 'Freak Perfume'. Диск, еще даже не успев толком выйти (первые два сингла), уже занял ведущие позиции как в немецких чартах, так и получил признание как "альбом месяца" во многих музыкальных изданиях.
Безусловно, 'Freak Perfume' поднимет популярность коллектива еще на одну ступеньку выше, ибо группа за всю свою творческую карьеру не выпустила ни одного провального (с творческой точки зрения) альбома, что бывает нечасто.
После 'Freak Perfume' вышли: 'PaniK ManiFesto' (2002), 'Dream Collector' (2003), 'Giftraum' (2004), 'Nigredo' (2004), 'MenschFeind' (2005), 'The Plague' (2007), 'Nekrolog 43' (2007), '(If)' (2009)
26 марта 2010 года вышел сборник 'А Соllесtion Of...' содержащий лучшие песни за всё время карьеры. Первый в истории группы альбом который распространяется исключительно через интернет.
26 августа 2011 мир увидел десятый студийный альбом Diary of Dreams - 'Ego:X', вышедший в Европе, как и все релизы до того начиная от 'End of Flowers' на собственном лейбле Адриана Хейтса Accession Records. В США изданием Ego:X занялся лейбл Metropolis Records. состоит из двух дисков, содержащих в общей сложности 21 композицию. Продюсером альбома выступил Даниэль Мейер (Haujobb), в результате чего качество звука великолепно.
CD "Ego:X" в Европе вышел в трех версиях: в обычной (в пластмассовой коробочке), в лимитированной (диджибокс, с дополнительным диском и 60-страничным буклетом) и в супер-лимитированной (наряду с двойным диджипаком с тремя бонус-треками на CD1 и четырьмя бонус-треками на CD2 (треклист идентичен лимитированному изданию), бокс содержит 60-страничную книгу Ego:XXL, четыре вручную подписанные XXL-открытки, металлический брелок, металлический значок с лого группы, медиатор, наклейку с лого "Ego:X", XXL наклейку с лого Diary of Dreams, кнопку и нашивку.). Альбом "Ego:X" вышел также в качестве двойной виниловой пластинки.
--

Обновление релиза

06.11.2017 Обновил
Добавлено:
2004 - Giftraum [A 073]
2009 - [If] [A 111]
2016 - reLive [A 140] 2CD
2017 - Hell In Eden [A 143]--31.12.2017 Обновил
Почти ко всем релизам теперь присутствуют полноценные сканы
--
представлен:


[galltoto.com]_t_5444585.torrent
Торрент: Зарегистрирован ·  [ 2019-01-07 13:28 ] ·  f0cce294072f6dcb3249ccc04d48e141fe247771

61 KB

Статус: проверено
Скачан: 0 раз
Размер: 10.68 GB
Оценка: 
(Голосов: 0)
Сказали спасибо: 0  Спасибо
Похожие темы
[Профиль]    [ЛС]
Показать сообщения:    
Ответить на тему

Текущее время: Сегодня 11:29

Часовой пояс: GMT + 7



Вы не можете начинать темы
Вы не можете отвечать на сообщения
Вы не можете редактировать свои сообщения
Вы не можете удалять свои сообщения
Вы не можете голосовать в опросах
Вы не можете прикреплять файлы к сообщениям
Вы можете скачивать файлы


Infotainment du véhicule | Mia Goth | Computer in Daily Life - 3996 Words