(Ambient/Dark/Neoclassical/Sympho) [CD] Chaostar (Septicflesh project) - Collection - 2000-2018, (5 CDs), FLAC (image+.cue), lossless

Ответить на тему
Статистика раздачи [Обновить пиров]
Размер:  1.55 GB   |    Зарегистрирован:  14 дней   |    Скачан:  0 раз

Полного источника не было: Никогда

 
   
 
 
 
Автор Сообщение

galltoto.com

Создавать темы 07-Янв-2019 13:52

[Цитировать]


Collection
Жанр: Ambient/Dark/Neoclassical/Sympho Носитель: CD
Страна-производитель диска (релиза): Austria,Germany Год издания: 2000-2018
Страна исполнителя (группы): Greece Аудиокодек: FLAC (*.flac)
Тип рипа: image+.cue Битрейт аудио: lossless
Источник (релизер): ungern666 Наличие сканов в содержимом раздачи: да

2000: Chaostar

Издатель (лейбл): Holy Records
Номер по каталогу: HOLY57CD
Продолжительность: 45:00
01. Project Atom Traveller 04:44
02. An Electric Storm Of Thoughts 05:15
03. No Gravity 06:21
04. The Field Of Ante Cun 07:47
05. The Accident In Ambere 05:46
06. Time Was Running Out 04:56
07. The First Meeting 06:28
08. Finale 03:44

Лог создания рипа

Exact Audio Copy V1.1 from 23. June 2015
EAC extraction logfile from 26. April 2018, 14:47
Chaostar / Chaostar
Used drive : HP DVD Writer 1170d Adapter: 1 ID: 1
Read mode : SecureUtilize accurate stream : YesDefeat audio cache : YesMake use of C2 pointers : No
Read offset correction : 6Overread into Lead-In and Lead-Out : NoFill up missing offset samples with silence : YesDelete leading and trailing silent blocks : NoNull samples used in CRC calculations : YesUsed interface : Native Win32 interface for Win NT & 2000
Used output format : User Defined EncoderSelected bitrate : 1024 kBit/sQuality : HighAdd ID3 tag : NoCommand line compressor : C:\Program Files (x86)\Exact Audio Copy\Flac\flac.exeAdditional command line options : -V -8 -T "Date=%year%" -T "Genre=%genre%" %source%
TOC of the extracted CD
Track | Start | Length | Start sector | End sector --------------------------------------------------------- 1 | 0:00.00 | 4:44.30 | 0 | 21329 2 | 4:44.30 | 5:14.52 | 21330 | 44931 3 | 9:59.07 | 6:21.18 | 44932 | 73524 4 | 16:20.25 | 7:46.47 | 73525 | 108521 5 | 24:06.72 | 5:45.65 | 108522 | 134461 6 | 29:52.62 | 4:56.18 | 134462 | 156679 7 | 34:49.05 | 6:27.50 | 156680 | 185754 8 | 41:16.55 | 3:43.70 | 185755 | 202549
Range status and errors
Selected range
Filename C:\EAC\ungern666\Chaostar - Chaostar.wav
Peak level 100.0 % Extraction speed 6.7 X Range quality 100.0 % Test CRC FF38B845 Copy CRC FF38B845 Copy OK
No errors occurred
AccurateRip summary
Track 1 cannot be verified as accurate (confidence 3) [80F635EC], AccurateRip returned [8C0F3B8E] (AR v2)Track 2 cannot be verified as accurate (confidence 3) [26F63D0F], AccurateRip returned [B85DADE6] (AR v2)Track 3 cannot be verified as accurate (confidence 3) [EA1ACA8C], AccurateRip returned [64E8A55E] (AR v2)Track 4 cannot be verified as accurate (confidence 3) [8469CDBE], AccurateRip returned [CE4F1278] (AR v2)Track 5 cannot be verified as accurate (confidence 3) [9AE93726], AccurateRip returned [71063773] (AR v2)Track 6 cannot be verified as accurate (confidence 3) [8CDB7A32], AccurateRip returned [ED39CB53] (AR v2)Track 7 cannot be verified as accurate (confidence 3) [A6AB901A], AccurateRip returned [89B5AF20] (AR v2)Track 8 cannot be verified as accurate (confidence 3) [7EFD0462], AccurateRip returned [F8C7A011] (AR v2)
No tracks could be verified as accurateYou may have a different pressing from the one(s) in the database
End of status report
---- CUETools DB Plugin V2.1.6
[CTDB TOCID: ZryIJpSMaZNWWoBiz71bXxf7_yQ-] foundSubmit result: ZryIJpSMaZNWWoBiz71bXxf7_yQ- has been confirmedTrack | CTDB Status 1 | (15/16) Accurately ripped 2 | (15/16) Accurately ripped 3 | (15/16) Accurately ripped 4 | (15/16) Accurately ripped 5 | (15/16) Accurately ripped 6 | (15/16) Accurately ripped 7 | (15/16) Accurately ripped 8 | (15/16) Accurately ripped
==== Log checksum 1EC4CF4C1F1E8A999BE8E8AA536E9CC1A95CC380A735FC9C9D72D4F6626CFBEF ====

2001: Threnody

Издатель (лейбл): Holy Records
Номер по каталогу: HOLY67CD
Продолжительность: 47:16
01. Threnody 02:47
02. Day Of Anger 02:53
03. Lamentation 06:14
04. Canticles 06:01
05. Let Them Free 04:24
06. Miasma 07:11
07. Whose God? 04:23
08. Exaudi 04:05
09. Epitaphium 04:53
10. Mantis 04:27

Лог создания рипа

Exact Audio Copy V1.1 from 23. June 2015
EAC extraction logfile from 26. April 2018, 15:07
Chaostar / Threnody
Used drive : HP DVD Writer 1170d Adapter: 1 ID: 1
Read mode : SecureUtilize accurate stream : YesDefeat audio cache : YesMake use of C2 pointers : No
Read offset correction : 6Overread into Lead-In and Lead-Out : NoFill up missing offset samples with silence : YesDelete leading and trailing silent blocks : NoNull samples used in CRC calculations : YesUsed interface : Native Win32 interface for Win NT & 2000
Used output format : User Defined EncoderSelected bitrate : 1024 kBit/sQuality : HighAdd ID3 tag : NoCommand line compressor : C:\Program Files (x86)\Exact Audio Copy\Flac\flac.exeAdditional command line options : -V -8 -T "Date=%year%" -T "Genre=%genre%" %source%
TOC of the extracted CD
Track | Start | Length | Start sector | End sector --------------------------------------------------------- 1 | 0:00.00 | 2:46.65 | 0 | 12514 2 | 2:46.65 | 2:52.42 | 12515 | 25456 3 | 5:39.32 | 6:14.10 | 25457 | 53516 4 | 11:53.42 | 6:00.53 | 53517 | 80569 5 | 17:54.20 | 4:23.45 | 80570 | 100339 6 | 22:17.65 | 7:11.10 | 100340 | 132674 7 | 29:29.00 | 4:22.42 | 132675 | 152366 8 | 33:51.42 | 4:05.30 | 152367 | 170771 9 | 37:56.72 | 4:52.70 | 170772 | 192741 10 | 42:49.67 | 4:26.55 | 192742 | 212746
Range status and errors
Selected range
Filename C:\EAC\ungern666\Chaostar - Threnody.wav
Peak level 99.9 % Extraction speed 5.4 X Range quality 99.9 % Test CRC C0570949 Copy CRC C0570949 Copy OK
No errors occurred
AccurateRip summary
Track 1 cannot be verified as accurate (confidence 3) [B189384C], AccurateRip returned [4C1B3A68] (AR v2)Track 2 cannot be verified as accurate (confidence 3) [A0412725], AccurateRip returned [9987B202] (AR v2)Track 3 cannot be verified as accurate (confidence 3) [2D7C35D4], AccurateRip returned [3ECED39B] (AR v2)Track 4 cannot be verified as accurate (confidence 3) [4E8BBEE5], AccurateRip returned [2EA36DC9] (AR v2)Track 5 cannot be verified as accurate (confidence 3) [E4C9703E], AccurateRip returned [E37B10C2] (AR v2)Track 6 cannot be verified as accurate (confidence 3) [2942664D], AccurateRip returned [6E6ED5F1] (AR v2)Track 7 cannot be verified as accurate (confidence 3) [2F9E0E87], AccurateRip returned [E7DFAF0E] (AR v2)Track 8 cannot be verified as accurate (confidence 3) [63316EA1], AccurateRip returned [9FC7D48E] (AR v2)Track 9 cannot be verified as accurate (confidence 3) [CF15C945], AccurateRip returned [D842AF53] (AR v2)Track 10 cannot be verified as accurate (confidence 3) [2BA3C419], AccurateRip returned [6572B07F] (AR v2)
No tracks could be verified as accurateYou may have a different pressing from the one(s) in the database
End of status report
---- CUETools DB Plugin V2.1.6
[CTDB TOCID: gS6BRFfxdSGPG6jB4di4uFJ7wqY-] foundSubmit result: gS6BRFfxdSGPG6jB4di4uFJ7wqY- has been confirmedTrack | CTDB Status 1 | (8/9) Accurately ripped, or (1/9) differs in 268 samples @01:46:15-01:46:16 2 | (9/9) Accurately ripped 3 | (9/9) Accurately ripped 4 | (8/9) Accurately ripped, or (1/9) differs in 240 samples @03:06:06-03:06:07 5 | (9/9) Accurately ripped 6 | (9/9) Accurately ripped 7 | (8/9) Accurately ripped, or (1/9) differs in 240 samples @01:00:21-01:00:22 8 | (9/9) Accurately ripped 9 | (8/9) Accurately ripped, or (1/9) differs in 471 samples @03:27:04-03:27:05,04:40:67-04:40:68 10 | (8/9) Accurately ripped
==== Log checksum 95CED3FD0598A45B9EEF5757B36028797E61C360503B4C46F6CD75ED277C0CD4 ====

2004: The Scarlet Queen (Limited Edition)

Издатель (лейбл): Holy Records
Номер по каталогу: HOLY83CD
Продолжительность: 50:35
01. Birth Of A Vampire - Lullaby 01:22
02. The Scarlet Queen 03:15
03. Crimson Order 03:59
04. Embrace 05:52
05. I Am... The Assassin Of Gods 06:45
06. The Soul Of The Depths 04:51
07. Vampire Renegades 03:29
08. The Pleasure Dome 06:05
09. The Arab Merchant 03:29
10. Rex Mundi 02:25
11. Vampire's Illusions 03:52
12. When Death Dies 05:10

Лог создания рипа

Exact Audio Copy V1.1 from 23. June 2015
EAC extraction logfile from 26. April 2018, 15:28
Chaostar / The Scarlet Queen (Limited Edition)
Used drive : HP DVD Writer 1170d Adapter: 1 ID: 1
Read mode : SecureUtilize accurate stream : YesDefeat audio cache : YesMake use of C2 pointers : No
Read offset correction : 6Overread into Lead-In and Lead-Out : NoFill up missing offset samples with silence : YesDelete leading and trailing silent blocks : NoNull samples used in CRC calculations : YesUsed interface : Native Win32 interface for Win NT & 2000
Used output format : User Defined EncoderSelected bitrate : 1024 kBit/sQuality : HighAdd ID3 tag : NoCommand line compressor : C:\Program Files (x86)\Exact Audio Copy\Flac\flac.exeAdditional command line options : -V -8 -T "Date=%year%" -T "Genre=%genre%" %source%
TOC of the extracted CD
Track | Start | Length | Start sector | End sector --------------------------------------------------------- 1 | 0:00.00 | 1:22.07 | 0 | 6156 2 | 1:22.07 | 3:15.18 | 6157 | 20799 3 | 4:37.25 | 3:59.35 | 20800 | 38759 4 | 8:36.60 | 5:52.15 | 38760 | 65174 5 | 14:29.00 | 6:45.35 | 65175 | 95584 6 | 21:14.35 | 4:50.72 | 95585 | 117406 7 | 26:05.32 | 3:29.05 | 117407 | 133086 8 | 29:34.37 | 6:05.05 | 133087 | 160466 9 | 35:39.42 | 3:29.03 | 160467 | 176144 10 | 39:08.45 | 2:24.57 | 176145 | 187001 11 | 41:33.27 | 3:52.33 | 187002 | 204434 12 | 45:25.60 | 5:09.62 | 204435 | 227671
Range status and errors
Selected range
Filename C:\EAC\ungern666\Chaostar - The Scarlet Queen (Limited Edition).wav
Peak level 97.9 % Extraction speed 5.5 X Range quality 100.0 % Test CRC BA962EF6 Copy CRC BA962EF6 Copy OK
No errors occurred
AccurateRip summary
Track 1 accurately ripped (confidence 3) [3C4CC6A4] (AR v2)Track 2 accurately ripped (confidence 3) [442DD559] (AR v2)Track 3 accurately ripped (confidence 3) [CA9CA9D5] (AR v2)Track 4 accurately ripped (confidence 3) [AC8F7530] (AR v2)Track 5 accurately ripped (confidence 3) [04A3A252] (AR v2)Track 6 accurately ripped (confidence 3) [4EF60BF0] (AR v2)Track 7 accurately ripped (confidence 3) [AFE0C283] (AR v2)Track 8 accurately ripped (confidence 3) [5B18F561] (AR v2)Track 9 accurately ripped (confidence 3) [E2B11F26] (AR v2)Track 10 accurately ripped (confidence 2) [92547BF7] (AR v2)Track 11 accurately ripped (confidence 3) [4930FF2A] (AR v2)Track 12 accurately ripped (confidence 3) [62F99291] (AR v2)
All tracks accurately ripped
End of status report
---- CUETools DB Plugin V2.1.6
[CTDB TOCID: DoDuAk7cgKCISSucPopcwPFjwYA-] foundSubmit result: DoDuAk7cgKCISSucPopcwPFjwYA- has been confirmedTrack | CTDB Status 1 | (11/11) Accurately ripped 2 | (10/11) Accurately ripped 3 | (11/11) Accurately ripped 4 | (11/11) Accurately ripped 5 | (10/11) Accurately ripped 6 | ( 9/11) Accurately ripped 7 | (10/11) Accurately ripped 8 | (10/11) Accurately ripped 9 | (10/11) Accurately ripped 10 | (11/11) Accurately ripped 11 | (10/11) Accurately ripped 12 | (10/11) Accurately ripped
==== Log checksum 4A71A030AEC6104CFDC24F8A2D4B7C185B5EC8DD733597D521F91C69AC424F4B ====

2013: Anomima (Limited Edition)

Издатель (лейбл): Season Of Mist
Номер по каталогу: SOM 224D
Продолжительность: 56:02
01. 間 05:33
02. Un Pensiero Per Il Destino 04:30
03. Sorrow Descending 04:28
04. Medea 06:01
05. Dilate The Time 02:12
06..Les Réminiscences Extatiques 04:16
07. Truth Will Prevail 03:43
08. Όμορφη Κόρη 04:13
09. The Charmer 03:42
10. L'Idée Fixe 05:50
11. Misery's King 04:51
12. Canticles 2 (Bonus Track) 06:44
Bonus DVD

Лог создания рипа

Exact Audio Copy V1.1 from 23. June 2015
EAC extraction logfile from 26. April 2018, 15:51
Chaostar / Anomima (Limited Edition)
Used drive : HP DVD Writer 1170d Adapter: 1 ID: 1
Read mode : SecureUtilize accurate stream : YesDefeat audio cache : YesMake use of C2 pointers : No
Read offset correction : 6Overread into Lead-In and Lead-Out : NoFill up missing offset samples with silence : YesDelete leading and trailing silent blocks : NoNull samples used in CRC calculations : YesUsed interface : Native Win32 interface for Win NT & 2000
Used output format : User Defined EncoderSelected bitrate : 1024 kBit/sQuality : HighAdd ID3 tag : NoCommand line compressor : C:\Program Files (x86)\Exact Audio Copy\Flac\flac.exeAdditional command line options : -V -8 -T "Date=%year%" -T "Genre=%genre%" %source%
TOC of the extracted CD
Track | Start | Length | Start sector | End sector --------------------------------------------------------- 1 | 0:00.00 | 5:33.27 | 0 | 25001 2 | 5:33.27 | 4:29.51 | 25002 | 45227 3 | 10:03.03 | 4:27.72 | 45228 | 65324 4 | 14:31.00 | 6:00.40 | 65325 | 92364 5 | 20:31.40 | 2:11.53 | 92365 | 102242 6 | 22:43.18 | 4:15.62 | 102243 | 121429 7 | 26:59.05 | 3:43.25 | 121430 | 138179 8 | 30:42.30 | 4:12.71 | 138180 | 157150 9 | 34:55.26 | 3:41.59 | 157151 | 173784 10 | 38:37.10 | 5:50.36 | 173785 | 200070 11 | 44:27.46 | 4:51.12 | 200071 | 221907 12 | 49:18.58 | 6:43.63 | 221908 | 252195
Range status and errors
Selected range
Filename C:\EAC\ungern666\Chaostar - Anomima (Limited Edition).wav
Peak level 100.0 % Extraction speed 5.6 X Range quality 99.9 % Test CRC CE4A1AB2 Copy CRC CE4A1AB2 Copy OK
No errors occurred
AccurateRip summary
Track 1 accurately ripped (confidence 5) [667A4C6C] (AR v2)Track 2 accurately ripped (confidence 5) [6C1292D2] (AR v2)Track 3 accurately ripped (confidence 5) [07DBDA59] (AR v2)Track 4 not present in databaseTrack 5 accurately ripped (confidence 5) [5FBC9904] (AR v2)Track 6 accurately ripped (confidence 5) [12CFD00E] (AR v2)Track 7 accurately ripped (confidence 5) [3388ED81] (AR v2)Track 8 accurately ripped (confidence 5) [9503AA6D] (AR v2)Track 9 accurately ripped (confidence 5) [B1C16D65] (AR v2)Track 10 accurately ripped (confidence 5) [19724853] (AR v2)Track 11 accurately ripped (confidence 5) [274961E0] (AR v2)Track 12 accurately ripped (confidence 5) [6D918DCA] (AR v2)
11 track(s) accurately ripped 1 track(s) not present in the AccurateRip database
Some tracks could not be verified as accurate
End of status report
---- CUETools DB Plugin V2.1.6
[CTDB TOCID: TLQ8Cm9unmAJSALLvHtq.ygzQh8-] foundSubmit result: TLQ8Cm9unmAJSALLvHtq.ygzQh8- has been confirmedTrack | CTDB Status 1 | (8/8) Accurately ripped 2 | (8/8) Accurately ripped 3 | (8/8) Accurately ripped 4 | (8/8) Accurately ripped 5 | (8/8) Accurately ripped 6 | (8/8) Accurately ripped 7 | (8/8) Accurately ripped 8 | (8/8) Accurately ripped 9 | (8/8) Accurately ripped 10 | (8/8) Accurately ripped 11 | (8/8) Accurately ripped 12 | (8/8) Accurately ripped
==== Log checksum 63082586ABAEE07AB3DB1E5DCEB19344526BAA432077EB8B50889E28897A1C0B ====

2018: The Undivided Light

Издатель (лейбл): Season Of Mist
Номер по каталогу: SOM 437D
Продолжительность: 42:29
01. Tazama Jua 03:48
02. Blutbad 04:25
03. Stones And Dust 04:59
04. The Undivided Light 05:11
05. Mέμνησο 06:07
06. Silent Yard 10:51
07. Ying & Yang 07:09

Лог создания рипа

Exact Audio Copy V1.1 from 23. June 2015
EAC extraction logfile from 4. April 2018, 21:58
Chaostar / The Undivided Light
Used drive : HP DVD Writer 1170d Adapter: 1 ID: 1
Read mode : SecureUtilize accurate stream : YesDefeat audio cache : YesMake use of C2 pointers : No
Read offset correction : 6Overread into Lead-In and Lead-Out : NoFill up missing offset samples with silence : YesDelete leading and trailing silent blocks : NoNull samples used in CRC calculations : YesUsed interface : Native Win32 interface for Win NT & 2000
Used output format : User Defined EncoderSelected bitrate : 1024 kBit/sQuality : HighAdd ID3 tag : NoCommand line compressor : C:\Program Files (x86)\Exact Audio Copy\Flac\flac.exeAdditional command line options : -V -8 -T "Date=%year%" -T "Genre=%genre%" %source%
TOC of the extracted CD
Track | Start | Length | Start sector | End sector --------------------------------------------------------- 1 | 0:00.00 | 3:47.55 | 0 | 17079 2 | 3:47.55 | 4:25.09 | 17080 | 36963 3 | 8:12.64 | 4:59.19 | 36964 | 59407 4 | 13:12.08 | 5:10.58 | 59408 | 82715 5 | 18:22.66 | 6:07.15 | 82716 | 110255 6 | 24:30.06 | 10:50.47 | 110256 | 159052 7 | 35:20.53 | 7:09.10 | 159053 | 191237
Range status and errors
Selected range
Filename C:\EAC\ungern666\Chaostar - The Undivided Light.wav
Peak level 97.7 % Extraction speed 6.1 X Range quality 99.9 % Test CRC 871C9008 Copy CRC 871C9008 Copy OK
No errors occurred
AccurateRip summary
Track 1 not present in databaseTrack 2 not present in databaseTrack 3 not present in databaseTrack 4 not present in databaseTrack 5 not present in databaseTrack 6 not present in databaseTrack 7 not present in database
None of the tracks are present in the AccurateRip database
End of status report
---- CUETools DB Plugin V2.1.6
[CTDB TOCID: qieMX5_Dyo88H6heO1wvfQ.FG90-] foundSubmit result: qieMX5_Dyo88H6heO1wvfQ.FG90- has been confirmedTrack | CTDB Status 1 | (1/1) Accurately ripped 2 | (1/1) Accurately ripped 3 | (1/1) Accurately ripped 4 | (1/1) Accurately ripped 5 | (1/1) Accurately ripped 6 | (1/1) Accurately ripped 7 | (1/1) Accurately ripped
==== Log checksum 3690149E3251DC4BD8BFEF9F101E8D8C5585DDBD6F82B8FB33F279CFE30843C2 ====
-Septicflesh- -Материал предназначен для ознакомления!


[galltoto.com]_t_5544673.torrent
Торрент: Зарегистрирован ·  [ 2019-01-07 13:28 ] ·  65769cc8d774d077a739294ba384cc7670b69b19

23 KB

Статус: проверено
Скачан: 0 раз
Размер: 1.55 GB
Оценка: 
(Голосов: 0)
Сказали спасибо: 0  Спасибо
Похожие темы
[Профиль]    [ЛС]
Показать сообщения:    
Ответить на тему

Текущее время: Сегодня 11:29

Часовой пояс: GMT + 7



Вы не можете начинать темы
Вы не можете отвечать на сообщения
Вы не можете редактировать свои сообщения
Вы не можете удалять свои сообщения
Вы не можете голосовать в опросах
Вы не можете прикреплять файлы к сообщениям
Вы можете скачивать файлы


Spoils of War season 05 episode 19 | Josh Hutcherson | Chapter 01 - Chapter 01 January 11, 2018 Chapter 00 - Chapter 00 January 10, 2018