Все говорят, что я люблю тебя / Everyone Says I Love You (Вуди Аллен / Woody Allen) [1996, США, комедия, мелодрама, мюзикл, BDRip] VO Игорь Дольский + Original Eng

Ответить на тему
Статистика раздачи [Обновить пиров]
Размер:  1.42 GB   |    Зарегистрирован:  15 дней   |    Скачан:  0 раз

Полного источника не было: Никогда

 
   
 
 
 
Автор Сообщение

galltoto.com

Создавать темы 02-Янв-2019 22:29

[Цитировать]

Все говорят, что я люблю тебя / Everyone Says I Love You
Страна: США
Жанр: комедия, мелодрама, мюзикл
Год выхода: 1996
Продолжительность: 01:40:50
Перевод: Одноголосый закадровый Игорь Дольский
Субтитры: нет
Оригинальная аудиодорожка: английский
Режиссер: Вуди Аллен / Woody Allen
В ролях: Дрю Бэрримор, Джулия Робертс, Голди Хоун, Вуди Аллен, Алан Алда, Лукас Хаас, Тим Рот,
Дэвид Огден Стайерз, Эдвард Нортон, Натали Портман
Описание: Комедия в духе классических американских мюзиклов. В сюжете участвуют персонажи, связанные родственными и дружескими отношениями…
Джоу Берлин развелся со свой женой Стеффи, и она вышла замуж за другого во второй раз. А сам он, подстрекаемый дочкой Джуной, носится за замужней Бонни Сайделл по всему миру, настигает ее на набережной Сены и изливает свои чувства. Но потом, пожив немного вместе, они расстаются…
Действие фильма стремительно перемещается из Нью-Йорка в Венецию, оттуда в Париж и обратно в Нью-Йорк. А в это время десятки героев выясняют, кто в кого влюблен и почему.
Доп. информация: Дорожка с VO синхронизирована и наложена ale_x2008 при помощи Adobe Audition, Sony Vegas и VirtualDubMod.
За оцифрованную с VHS дорожку благодарим - d_rocker


Сэмпл: http://yadi.sk/i/xSWpoDQZbGX_Xg
Качество видео: BDRip
Формат файла: AVI
Видео: XviD build 65, 720x400 (1.80:1), 24 fps, 1615 kbps avg, 0.23 bit/pixel
Аудио: AC3 Dolby Digital, 48000Hz 2/0 (L,R) ch (mono), 192 kbps avg
Аудио 2: AC3 Dolby Digital, 48000Hz 2/0 (L,R) ch, 192 kbps avg

MediaInfo

раздачи TEMP\Все говорят, что я люблю тебя - Everyone Says I Love You [by ale_x2008].aviFormat : AVIFormat/Info : Audio Video InterleaveFile size : 1.42 GiBDuration : 1 h 40 minOverall bit rate : 2 013 kb/sMovie name : Все говорят, что я люблю тебя - Everyone Says I Love You [by ale_x2008]Director : by ale_x2008Writing application : VirtualDubMod 1.5.10.2 (build 2540/release)Copyright : Edich2Comment : Torrentc
VideoID : 0Format : MPEG-4 VisualFormat profile : Advanced Simple@L5Format settings : BVOP2Format settings, BVOP : 2Format settings, QPel : NoFormat settings, GMC : No warppointsFormat settings, Matrix : Default (MPEG)Codec ID : XVIDCodec ID/Hint : XviDDuration : 1 h 40 minBit rate : 1 616 kb/sWidth : 720 pixelsHeight : 400 pixelsDisplay aspect ratio : 16:9Frame rate : 24.000 FPSColor space : YUVChroma subsampling : 4:2:0Bit depth : 8 bitsScan type : ProgressiveCompression mode : LossyBits/(Pixel*Frame) : 0.234Stream size : 1.14 GiB (80%)Writing library : XviD 65
Audio #1ID : 1Format : AC-3Format/Info : Audio Coding 3Codec ID : 2000Duration : 1 h 40 minBit rate mode : ConstantBit rate : 192 kb/sChannel(s) : 2 channelsChannel positions : Front: L RSampling rate : 48.0 kHzFrame rate : 31.250 FPS (1536 SPF)Bit depth : 16 bitsCompression mode : LossyStream size : 138 MiB (10%)Alignment : Split accross interleavesInterleave, duration : 42 ms (1.00 video frame)Interleave, preload duratio : 500 msService kind : Complete Main
Audio #2ID : 2Format : AC-3Format/Info : Audio Coding 3Codec ID : 2000Duration : 1 h 40 minBit rate mode : ConstantBit rate : 192 kb/sChannel(s) : 2 channelsChannel positions : Front: L RSampling rate : 48.0 kHzFrame rate : 31.250 FPS (1536 SPF)Bit depth : 16 bitsCompression mode : LossyStream size : 138 MiB (10%)Alignment : Split accross interleavesInterleave, duration : 42 ms (1.00 video frame)Interleave, preload duratio : 500 msService kind : Complete Main

Скриншоты




[galltoto.com]_t_5657019.torrent
Торрент: Зарегистрирован ·  [ 2019-01-02 22:29 ] ·  bc2af60d487e47d3e56f919fbd4018fc8bb712d6

15 KB

Статус: проверено
Скачан: 0 раз
Размер: 1.42 GB
Оценка: 
(Голосов: 0)
Сказали спасибо: 0  Спасибо
Похожие темы
[Профиль]    [ЛС]
Показать сообщения:    
Ответить на тему

Текущее время: Сегодня 12:40

Часовой пояс: GMT + 7



Вы не можете начинать темы
Вы не можете отвечать на сообщения
Вы не можете редактировать свои сообщения
Вы не можете удалять свои сообщения
Вы не можете голосовать в опросах
Вы не можете прикреплять файлы к сообщениям
Вы можете скачивать файлы


Subwoofers | Riki Takeuchi | Thi Mai Rumo ao Vietnã