Мир без женщин / Поломка / Un monde sans femmes / Le naufragé (Гийом Брак / Guillaume Brac) [2011, Франция, драма, комедия, DVDRip] VO (Александр Дасевич)

Ответить на тему
Статистика раздачи [Обновить пиров]
Размер:  1.36 GB   |    Зарегистрирован:  15 дней   |    Скачан:  0 раз

Полного источника не было: Никогда

 
   
 
 
 
Автор Сообщение

galltoto.com

Создавать темы 02-Янв-2019 22:29

[Цитировать]

Мир без женщин / Поломка / Un monde sans femmes / Le naufragé
Страна: Франция
Жанр: драма, комедия
Год выхода: 2011
Продолжительность: 01:19:25
Перевод: Одноголосый закадровый Александр Дасевич
Субтитры: нет
Режиссер: Гийом Брак / Guillaume Brac
В ролях: Венсан Макен, Лорэ Кэлами, Констанс Руссо, Лорен Папо, Джеффри Буланжер, Седрик Кайё, Мари Пикард, Френсин Буланжер
Описание: Маленький курорт на берегу Пикардии. Последняя неделя августа. Сильвен, сдавая в аренду квартиру, знакомится с двумя привлекательными женщинами. Одинокому мужчине, в жизни которого напрочь отсутствуют женщины, наконец-то представится долгожданный, но мимолётный случай. Очень быстро Сильвен становиться необходимым для своих новых друзей. Но всё усложняется в тот момент, когда приходят чувства, и особенно, когда появляется Жиль, местный бессовестный бабник...

Сэмпл: http://multi-up.com/1217518
Качество видео: DVDRip (Источник: Torrentc - DVD9)
Формат файла: AVI
Видео: XviD 73, 704x384, (1,85:1), 25,000 fps, 2256 Кбит/с, 8 бит, 0.33 bit/pixel
Аудио: Русский (АС3, 2 ch (Front: L R), 48,0 KHz, 192 Kbps)

MediaInfo

ОбщееПолное имя : H:\Фильмы на трекер\Мир без женщин (драма, комедия 2011 год).aviФормат файла : AVIФормат файла/Информация : Audio Video InterleaveРазмер файла : 1,36 ГбайтПродолжительность : 1 ч. 19 м.Общий поток : 2458 Кбит/секПрограмма кодирования : VirtualDubMod 1.5.10.2 (build 2540/release)Библиотека кодирования : VirtualDubMod build 2540/release
ВидеоИдентификатор : 0Формат файла : MPEG-4 VisualПрофиль формата : Advanced Simple@L5Параметр BVOP формата : 2Параметр QPel формата : НетПараметр GMC формата : Без точки переходаПараметр матрицы формата : ВыборочнаяИдентификатор кодека : XVIDИдентификатор кодека/Подсказка : XviDПродолжительность : 1 ч. 19 м.Битрейт : 2256 Кбит/секШирина : 704 пикселяВысота : 384 пикселяСоотношение сторон : 1,85:1Частота кадров : 25,000 кадров/секЦветовое пространство : YUVСубдискретизация насыщенности : 4:2:0Битовая глубина : 8 битТип развёртки : ПрогрессивнаяМетод сжатия : С потерямиБит/(Пиксели*Кадры) : 0.334Размер потока : 1,25 Гбайт (92%)Библиотека кодирования : XviD 73
АудиоИдентификатор : 1Формат файла : AC-3Формат файла/Информация : Audio Coding 3Расширение режима : CM (complete main)Параметр Endianness формата : BigИдентификатор кодека : 2000Продолжительность : 1 ч. 19 м.Вид битрейта : ПостоянныйБитрейт : 192 Кбит/секКаналы : 2 каналаРасположение каналов : Front: L RЧастота : 48,0 КГцЧастота кадров : 31,250 кадров/сек (1536 spf)Метод сжатия : С потерямиРазмер потока : 109 Мбайт (8%)Выравнивание : Разделение по промежуткамПродолжительность промежутка : 40 мс. (1,00 видеокадр)Время предзагрузки промежутка : 500 мс.

Скриншот c названием фильма

Скриншоты



[galltoto.com]_t_5659502.torrent
Торрент: Зарегистрирован ·  [ 2019-01-02 22:29 ] ·  90bc84f5c40c29fe289450d3c2ff1214e4f65ca4

14 KB

Статус: проверено
Скачан: 0 раз
Размер: 1.36 GB
Оценка: 
(Голосов: 0)
Сказали спасибо: 0  Спасибо
Похожие темы
[Профиль]    [ЛС]
Показать сообщения:    
Ответить на тему

Текущее время: Сегодня 13:20

Часовой пояс: GMT + 7



Вы не можете начинать темы
Вы не можете отвечать на сообщения
Вы не можете редактировать свои сообщения
Вы не можете удалять свои сообщения
Вы не можете голосовать в опросах
Вы не можете прикреплять файлы к сообщениям
Вы можете скачивать файлы


Crank Yankers: Season ... | HD The Shape of Water (2017) | Powerless