Кровь Возрождения / Yomigaeri no chi / The Blood Of Rebirth (Тошиаки Тойода / Toshiaki Toyoda) [2009, Япония, Драма, фэнтези, DVDRip] VO (Олег Воротилин) + Sub Rus + Original Jpn

Ответить на тему
Статистика раздачи [Обновить пиров]
Размер:  815 MB   |    Зарегистрирован:  15 дней   |    Скачан:  0 раз

Полного источника не было: 14 дней

 
   
 
 
 
Автор Сообщение

galltoto.com

Создавать темы 02-Янв-2019 22:29

[Цитировать]

Кровь Возрождения / Yomigaeri no chi / The Blood Of Rebirth
Страна: Япония
Жанр: Драма, фентези
Год выхода: 2009
Продолжительность: 01:23:00
Перевод: Одноголосый закадровый Олег Воротилин по субтитрам jeweller_666(Ki-n-Ki)
Субтитры: русские
Оригинальная аудиодорожка: японский
Режиссер: Тошиаки Тойода / Toshiaki Toyoda
В ролях: Татсуя Накамура / Tatsuya Nakamura (Огури / Oguri)
Майю Кусакари / Mayuu Kusakari (Принцесса Тэрютэ / Princess Terute)
Кийохико Шибукава / Kiyohiko Shibukawa (Повелитель Дайзен / Lord Daizen)
Хирофуми Арай / Hirofumi Arai (Шума / Shuma)
Итсуджи Итао / Itsuji Itao (Монбан / Monban)
Маме Ямада / Mame Yamada (Буддийский монах / Buddhist priest)
Описание:
Темное сказочное Средневековье, мир где живут боги и демоны.
Лекаря Огури Хангана приглашает к себе Повелитель, дабы тот избавил его от мучительной болезни. Несмотря на все усилия Огури, Повелитель ......
Лекарь Огури очутился в ........
Страж вернул его в ......., но только в виде ......
Отныне жизнь Огури зависит от ........
Что же случилось с бедным Лекарем Огури?
Смотрите в новом фильме загадочного режиссёра Тойода Тошиаки.
Доп. информация:

скрытый текст

На самом деле Огури Ханган (1398-1464) — реальный исторический персонаж.
Сын богатого провинциального даймё, выросший в Киото при дворе сёгуна, был лишен отцовского наследства и стал после этого отчаянным и смелым авантюристом, героем анекдотов, буддистских притч, десятков пьес кабуки и бунраку. Самый известный эпизод его легендарной жизни — любовь с Тэрутэ, дочерью богача Дайдзэна из провинции Хитати. Узнав о том, что его дочь полюбила бродягу, Дайдзэн решил избавиться от гостя. По приказу злодея Огури был отравлен, избит, затоптан конями. Верные люди собрали его искалеченные останки и на деревянной тележке привезли их в Кумано, где долго и упорно лечили героя в водах целебного источника. Вылечили.
История Огури Хангана в версии Тоёды — это гибрид «Джека-из-Тени» Роджера Желязны и «Мертвеца» Джима Джармуша. Лаконичная фабула, минимум реплик и бесконечная череда безмолвных возвращений под эффектную гитарную музыку в духе Нила Янга, за которую фильму можно простить любые недостатки.
Ещё один отзыв о фильме, найденый на просторах инета
Тошиаки Тойода экранизировал (изрядно его изменив по дороге) миф про Огури Хангана в своей неторопливой, минималистичной манере. Получилось крайне медитативно-психоделическое фэнтези, сильно чем-то напоминающее знаменитого "Мертвеца". Имхо, людям, которым понравилась картина Джармуша, должен приглянуться и японский аналог истории. А вот ненавистникам "отсутствия сюжета" к фильму лучше не приближаться и на пушечный выстрел — всё равно уснут беспробудным сном минуте на двадцатой...
Большую часть времени кино ведёт себя как тягучий пост-видеоклип. Тойода как всегда порадовал интересным саундтреком: в The Blood of Rebirth создаёт весомую долю атмосферы и сопровождает отсутсвие действия музыка шугейзинг (или что-то около того) группы Twin Tail, чей барабанщик Татсуя Накамура исполняет так же и главную роль в фильме, причём делает это вполне неплохо. Правда, в основном от него требовалось неподвижно сидеть с суровым лицом
Не хочется спойлерить те крохи сюжета, что там имеются, так что ограничусь лишь вердиктом: хоть это далеко и не лучшая картина Тойоды, но мне понравилось. В любом случае, его возвращение в мир кино после нескольких лет вынужденного воздержания очень радует. Будем с нетерпением ждать следующих работ режиссёра.
Сэмпл: http://yadi.sk/i/_edKEsSxzLF1OA
Качество видео: DVDRip
Формат файла: AVI
Видео: Xvid 624x368 23.98fps 1038Kbps
Аудио 1: AC-3 48000Hz stereo 192 Kbps русский
Аудио 2: MPEG Audio Layer 3 48000Hz stereo 128Kbps японский
Формат файла субтитров: softsub (SSA/ASS)

MediaInfo

GeneralComplete name : D:\Видео\Раздачи\Кровь возрождения\The Blood of Rebirth\The Blood of Rebirth2.aviFormat : AVIFormat/Info : Audio Video InterleaveFile size : 815 MiBDuration : 1h 23mnOverall bit rate : 1 372 Kbps
VideoID : 0Format : MPEG-4 VisualFormat profile : Advanced Simple@L5Format settings, BVOP : 1Format settings, QPel : NoFormat settings, GMC : No warppointsFormat settings, Matrix : Default (MPEG)Codec ID : XVIDCodec ID/Hint : XviDDuration : 1h 23mnBit rate : 1 038 KbpsWidth : 624 pixelsHeight : 368 pixelsDisplay aspect ratio : 1.696Frame rate : 23.976 fpsColor space : YUVChroma subsampling : 4:2:0Bit depth : 8 bitsScan type : ProgressiveCompression mode : LossyBits/(Pixel*Frame) : 0.189Stream size : 616 MiB (76%)Writing library : XviD 1.2.0.dev47 (UTC 2006-11-01)
Audio #1ID : 1Format : AC-3Format/Info : Audio Coding 3Mode extension : CM (complete main)Format settings, Endianness : BigCodec ID : 2000Duration : 1h 23mnBit rate mode : ConstantBit rate : 192 KbpsChannel(s) : 2 channelsChannel positions : Front: L RSampling rate : 48.0 KHzBit depth : 16 bitsCompression mode : LossyStream size : 114 MiB (14%)Alignment : Split accross interleavesInterleave, duration : 42 ms (1.00 video frame)Interleave, preload duration : 500 ms
Audio #2ID : 2Format : MPEG AudioFormat version : Version 1Format profile : Layer 3Mode : Joint stereoMode extension : MS StereoCodec ID : 55Codec ID/Hint : MP3Duration : 1h 23mnBit rate mode : ConstantBit rate : 128 KbpsChannel(s) : 2 channelsSampling rate : 48.0 KHzCompression mode : LossyStream size : 76.0 MiB (9%)Alignment : Aligned on interleavesInterleave, duration : 42 ms (1.00 video frame)Interleave, preload duration : 504 msWriting library : LAME3.97Encoding settings : -m j -V 4 -q 2 -lowpass 17 -b 128

Скриншот c названием фильма

Скриншоты




Источник: Torrentc


[galltoto.com]_t_5659507.torrent
Торрент: Зарегистрирован ·  [ 2019-01-02 22:29 ] ·  a316bc5276a9ea3778d0dc44e535442db150b66f

17 KB

Статус: проверено
Скачан: 0 раз
Размер: 815 MB
Оценка: 
(Голосов: 0)
Сказали спасибо: 0  Спасибо
Похожие темы
[Профиль]    [ЛС]
Показать сообщения:    
Ответить на тему

Текущее время: Сегодня 13:17

Часовой пояс: GMT + 7



Вы не можете начинать темы
Вы не можете отвечать на сообщения
Вы не можете редактировать свои сообщения
Вы не можете удалять свои сообщения
Вы не можете голосовать в опросах
Вы не можете прикреплять файлы к сообщениям
Вы можете скачивать файлы


1-100 Hängemappen, Hängetaschen, Hängehefter - Hängeregister Hängeregistratur | Brian Goldner | Thương hiệu thang nhôm nào đang “cháy hàng liên tục” dịp cuối năm