Синий бархат / Blue Velvet (Дэвид Линч / David Lynch) [1986, США, триллер, криминал, детектив, BDRip] MVO (Первый канал)

Ответить на тему
Статистика раздачи [Обновить пиров]
Размер:  1.46 GB   |    Зарегистрирован:  15 дней   |    Скачан:  0 раз

Полного источника не было: Никогда

 
   
 
 
 
Автор Сообщение

galltoto.com

Создавать темы 02-Янв-2019 22:29

[Цитировать]

Синий бархат / Blue Velvet
Страна: США
Студия: Metro-Goldwyn-Mayer (MGM), De Laurentiis Entertainment Group
Жанр: триллер, криминал, детектив
Год выхода: 1986
Продолжительность: 02:00:33
Перевод: Профессиональный (многоголосый закадровый) кинокомпания Эй Би Видео по заказу Первого канала
Субтитры: нет
Оригинальная аудиодорожка: нет
Режиссер: Дэвид Линч / David Lynch
В ролях: Кайл МакЛахлан, Дэннис Хоппер, Изабелла Росселлини, Лора Дерн, Хоуп Лэнг, Дин Стокуэлл, Джордж Дикерсон, Присцилла Пойнтер, Фрэнсис Бэй, Джек Харви, Кен Стовиц, Брэд Дуриф, Джек Нэнс, Дж. Майкл Хантер, Дик Грин, Фред Пиклер, Филип Маркерт, Леонард Уоткинс, Моусес Гибсон, Селден Смит, Джон Джон Снайпс, Анджело Бадаламенти, Дональд Мур, Кэти Рейд, Спарки, Роберт Дж. Максвелл
Описание: Джеффри Бомон на время оставляет столичный колледж и возвращается в свой родной городок в связи с инсультом отца. Вскоре он находит в поле отрезанное человеческое ухо. Неудовлетворенный работой полиции, Бомон начинает собственное расследование.
Дополнительная информация:
Автор релиза -
Источник: Torrentc для рипа - Blu-Ray (USA) - Blue.Velvet.1986.BluRay.1080p.AVC.DTS-HD.MA.5.1-ESiR
Многоголосый перевод записан мной с канала Первый HD 15.12.2018
Рекламы нет!

Сэмпл: http://multi-up.com/1217643
Качество видео: BDRip
Формат файла: AVI
Видео: XviD, 720x304 (2,35:1), 1537 kbps, 23.976 fps, 0.293 bit/pixel
Аудио: Русский AC3, 48000 Гц, 2ch, 192 kbps

MediaInfo

ОбщееПолное имя : D:\Blue.Velvet.1986.BDRip-ylnian.aviФормат файла : AVIФормат файла/Информация : Audio Video InterleaveРазмер файла : 1,46 ГбайтПродолжительность : 2 ч. 0 м.Общий поток : 1738 Кбит/секПрограмма кодирования : VirtualDubMod 1.5.10.3 | www.virtualdub-fr.org || (build 2550/release)Библиотека кодирования : VirtualDubMod build 2550/release
ВидеоИдентификатор : 0Формат файла : MPEG-4 VisualПрофиль формата : Advanced Simple@L5Настройки формата : BVOP1 / Custom MatrixПараметр BVOP формата : 1Параметр QPel формата : НетПараметр GMC формата : Без точки переходаПараметр матрицы формата : ВыборочнаяИдентификатор кодека : XVIDИдентификатор кодека/Подсказка : XviDПродолжительность : 2 ч. 0 м.Битрейт : 1537 Кбит/секШирина : 720 пикселейВысота : 304 пикселяСоотношение сторон : 2,35:1Частота кадров : 23,976 (24000/1001) кадра/секЦветовое пространство : YUVСубдискретизация насыщенности : 4:2:0Битовая глубина : 8 битТип развёртки : ПрогрессивнаяМетод сжатия : С потерямиБит/(Пиксели*Кадры) : 0.293Размер потока : 1,29 Гбайт (88%)Библиотека кодирования : XviD 67
АудиоИдентификатор : 1Формат файла : AC-3Формат файла/Информация : Audio Coding 3Коммерческое название : Dolby DigitalИдентификатор кодека : 2000Продолжительность : 2 ч. 0 м.Вид битрейта : ПостоянныйБитрейт : 192 Кбит/секКаналы : 2 каналаChannel layout : L RЧастота : 48,0 КГцЧастота кадров : 31,250 кадров/сек (1536 SPF)Битовая глубина : 16 битМетод сжатия : С потерямиРазмер потока : 166 Мбайт (11%)Выравнивание : Разделение по промежуткамПродолжительность промежутка : 42 мс. (1,00 видеокадр)Время предзагрузки промежутка : 500 мс.Заголовок : RUS - MVO - 1 kanalServiceKind/String : Complete Main


[galltoto.com]_t_5660080.torrent
Торрент: Зарегистрирован ·  [ 2019-01-02 22:29 ] ·  24366632e5c5ed6b216381d4d3d8ca13e437daa4

15 KB

Статус: проверено
Скачан: 0 раз
Размер: 1.46 GB
Оценка: 
(Голосов: 0)
Сказали спасибо: 0  Спасибо
Похожие темы
[Профиль]    [ЛС]
Показать сообщения:    
Ответить на тему

Текущее время: Сегодня 12:55

Часовой пояс: GMT + 7



Вы не можете начинать темы
Вы не можете отвечать на сообщения
Вы не можете редактировать свои сообщения
Вы не можете удалять свои сообщения
Вы не можете голосовать в опросах
Вы не можете прикреплять файлы к сообщениям
Вы можете скачивать файлы


Jon Hamm | Big Tits In Sports (37) | 2x Pro Photo Photography Studio 2M Light Stand Tripod for Lighting Kit N D8L7