Танго либре / Tango libre (Фредерик Фонтейн / Frédéric Fonteyne) [2012, Франция, Бельгия, Люксембург, драма, WEB-DLRip] MVO

Ответить на тему
Статистика раздачи [Обновить пиров]
Размер:  1.46 GB   |    Зарегистрирован:  15 дней   |    Скачан:  0 раз

Полного источника не было: Никогда

 
   
 
 
 
Автор Сообщение

galltoto.com

Создавать темы 02-Янв-2019 22:29

[Цитировать]

Танго либре / Tango libre
Страна: Франция, Бельгия, Люксембург
Студия: Artemis, Belgacom, Canal+
Жанр: драма
Год выхода: 2012
Продолжительность: 01:36:45-Перевод: Профессиональный (многоголосый закадровый)
Субтитры: нет
Оригинальная аудиодорожка: нет-Режиссер: Фредерик Фонтейн / Frédéric Fonteyne-В ролях: Франсуа Дамьен, Серхи Лопес, Ян Хамменекер, Анна Полисевич, Закари Шассерьо, Кристиан Кмиотек, Давид Мюржиа, Фредерик Френе, Доминик Лёжён, Марк Шарле, Корантен Лобэ, Венсан Тавье, Кристоф Россиньон-Описание: Охранник тюрьмы знакомится с женщиной на еженедельных курсах танго. Они снова встречаются в тюрьме, когда она приходит на свидание к своему мужу заключенному. В течение дальнейшего времени он втягивается в ее сложную личную жизнь. Тем временем заключенные тоже решают организовать курсы танго.-Качество видео: WEB-DLRip
Формат файла: AVI
Видео: 720x304 (2.37:1), 24.000 fps, XviD build 73 ~1761 kbps avg, 0.34 bit/pixel
Аудио : 48 kHz, AC3 Dolby Digital, 3/2 (L,C,R,l,r) + LFE ch, ~384 kbps-

Сэмпл-

MediaInfo

Формат файла                                   : AVI
Формат файла/Информация                        : Audio Video Interleave
Размер файла                             : 1,46 Гбайт
Продолжительность                        : 1 ч. 36 м.
Общий поток                              : 2155 Кбит/сек
Программа кодирования                    : VirtualDubMod 1.5.10.3 | www.virtualdub-fr.org || (build 2550/release)
Библиотека кодирования                   : VirtualDubMod build 2550/release
Видео
Идентификатор                            : 0
Формат файла                                   : MPEG-4 Visual
Профиль формата                          : Advanced Simple@L5
Настройки формата                        : BVOP1 / Custom Matrix
Параметр BVOP формата                    : 1
Параметр QPel формата                    : Нет
Параметр GMC формата                     : Без точки перехода
Параметр матрицы формата                 : Выборочная
Идентификатор кодека                     : XVID
Идентификатор кодека/Подсказка           : XviD
Продолжительность                        : 1 ч. 36 м.
Битрейт                                  : 1762 Кбит/сек
Ширина                                   : 720 пикселей
Высота                                   : 304 пикселя
Соотношение сторон                       : 2,35:1
Частота кадров                           : 24,000 кадра/сек
Цветовое пространство                    : YUV
Субдискретизация насыщенности            : 4:2:0
Битовая глубина                          : 8 бит
Тип развёртки                            : Прогрессивная
Метод сжатия                             : С потерями
Бит/(Пиксели*Кадры)                      : 0.335
Размер потока                            : 1,19 Гбайт (82%)
Библиотека кодирования                   : XviD 73
Аудио
Идентификатор                            : 1
Формат файла                                   : AC-3
Формат файла/Информация                        : Audio Coding 3
Коммерческое название                    : Dolby Digital
Идентификатор кодека                     : 2000
Продолжительность                        : 1 ч. 36 м.
Вид битрейта                             : Постоянный
Битрейт                                  : 384 Кбит/сек
Каналы                                   : 6 каналов
Channel layout                           : L R C LFE Ls Rs
Частота                                  : 48,0 КГц
Частота кадров                           : 31,250 кадров/сек (1536 SPF)
Битовая глубина                          : 16 бит
Метод сжатия                             : С потерями
Размер потока                            : 266 Мбайт (18%)
Выравнивание                             : Разделение по промежуткам
Продолжительность промежутка             : 42  мс. (1,00 видеокадр)
Время предзагрузки промежутка            : 500  мс.
ServiceKind/String                       : Complete Main

Скриншоты




[galltoto.com]_t_5661557.torrent
Торрент: Зарегистрирован ·  [ 2019-01-02 22:29 ] ·  a7446d7796c496693a1b8f2560d07fcf3890b6a4

15 KB

Статус: проверено
Скачан: 0 раз
Размер: 1.46 GB
Оценка: 
(Голосов: 0)
Сказали спасибо: 0  Спасибо
Похожие темы
[Профиль]    [ЛС]
Показать сообщения:    
Ответить на тему

Текущее время: Сегодня 12:49

Часовой пояс: GMT + 7



Вы не можете начинать темы
Вы не можете отвечать на сообщения
Вы не можете редактировать свои сообщения
Вы не можете удалять свои сообщения
Вы не можете голосовать в опросах
Вы не можете прикреплять файлы к сообщениям
Вы можете скачивать файлы


3 | Watch now! | Sleepy Hollow