Дом, который построил Джек / The House That Jack Built (Ларс фон Триер / Lars von Trier) [2018, Дания, Франция, Германия, Швеция, ужасы, триллер, драма, WEBRip-AVC] Original Eng + Sub Rus

Ответить на тему
Статистика раздачи [Обновить пиров]
Размер:  1.44 GB   |    Зарегистрирован:  15 дней   |    Скачан:  0 раз

Полного источника не было: Никогда

 
   
 
 
 
Автор Сообщение

galltoto.com

Создавать темы 02-Янв-2019 22:29

[Цитировать]

-Дом, который построил Джек / The House That Jack Built-- -Страна: Дания, Франция, Германия, Швеция
Жанр: ужасы, триллер, драма
Год выхода: 2018
Продолжительность: 02:30:49-Перевод: Субтитры
Субтитры: русские (полные)
Оригинальная аудиодорожка: английская-Режиссер: Ларс фон Триер / Lars von Trier-В ролях: Мэтт Диллон, Бруно Ганц, Ума Турман, Шиван Фэллон, Софи Гробёль, Райли Кио, Джереми Дэвис, Эдвард Спелирс, Дэвид Бэйли, Ю Джи-тхэ-Описание: История серийного убийцы по имени Джек разворачивается в Америке 70-х. За 12 лет блестящей «карьеры» Джеку встретятся назойливая попутчица, наивная подружка и другие очаровательные в своей глупости жертвы. Пять невероятных, до жути изобретательных и порой до смеха абсурдных убийств, к каждому из которых Джек относится как к настоящему произведению искусства.- - -Качество видео: WEBRip-AVC / The.House.That.Jack.Built.2018.1080p.AMZN.WEBRip.DDP5.1.x264-NTG
Формат файла: MKV-Видео: MPEG-4 AVC, 800x330 (2.40:1), 24.000 fps, ~1147 kbps avg, 0.181 bit/pixel
Аудио: 48 kHz, AC3 Dolby Digital, 2/0 (L,R) ch, ~192 kbps avg-

MediaInfo

Complete name               : D:\Раздача\Дом, который построил Джек (2018) WEBRip-AVC_ivanes.mkv
Format                      : Matroska
Format version              : Version 2
File size                   : 1.44 GiB
Duration                    : 2 h 30 min
Overall bit rate            : 1 366 kb/s
Movie name                  : Дом, который построил Джек (2018) WEBRip-AVC_ivanes
Encoded date                : UTC 2018-12-18 16:59:17
Writing application         : mkvmerge v4.4.0 ('Die Wiederkehr') сборка от Jan  3 2011 21:40:45
Writing library             : libebml v1.0.0 + libmatroska v1.0.0
Cover                       : Yes
Attachments                 : cover.jpg / cover.jpg
Video
ID                          : 1
Format                      : AVC
Format/Info                 : Advanced Video Codec
Format profile              : High@L4.1
Format settings, CABAC      : Yes
Format settings, RefFrames  : 11 frames
Codec ID                    : V_MPEG4/ISO/AVC
Duration                    : 2 h 30 min
Bit rate                    : 1 147 kb/s
Width                       : 800 pixels
Height                      : 330 pixels
Display aspect ratio        : 2.40:1
Frame rate mode             : Constant
Frame rate                  : 24.000 FPS
Color space                 : YUV
Chroma subsampling          : 4:2:0
Bit depth                   : 8 bits
Scan type                   : Progressive
Bits/(Pixel*Frame)          : 0.181
Stream size                 : 1.21 GiB (84%)
Title                       : Rip by ivanes
Writing library             : x264 core 157 r2935 545de2f
Encoding settings           : cabac=1 / ref=11 / deblock=1:-3:-3 / analyse=0x3:0x113 / me=umh / subme=10 / psy=1 / psy_rd=1.00:0.00 / mixed_ref=1 / me_range=32 / chroma_me=1 / trellis=2 / 8x8dct=1 / cqm=0 / deadzone=21,11 / fast_pskip=0 / chroma_qp_offset=-2 / threads=12 / lookahead_threads=2 / sliced_threads=0 / nr=0 / decimate=1 / interlaced=0 / bluray_compat=0 / constrained_intra=0 / bframes=11 / b_pyramid=2 / b_adapt=2 / b_bias=0 / direct=1 / weightb=1 / open_gop=0 / weightp=2 / keyint=240 / keyint_min=24 / scenecut=40 / intra_refresh=0 / rc_lookahead=60 / rc=crf / mbtree=0 / crf=18.6 / qcomp=0.60 / qpmin=0 / qpmax=69 / qpstep=4 / vbv_maxrate=50000 / vbv_bufsize=62500 / crf_max=0.0 / nal_hrd=none / filler=0 / ip_ratio=1.40 / pb_ratio=1.30 / aq=1:1.00
Default                     : Yes
Forced                      : No
Statistics Tags Issue       : mkvmerge v10.0.0 ('To Drown In You') 64bit 2018-12-18 16:51:01 / mkvmerge v4.4.0 ('Die Wiederkehr') сборка от Jan  3 2011 21:40:45 2018-12-18 16:59:17
FromStats_BitRate           : 1172296
FromStats_Duration          : 02:30:49.417000000
FromStats_FrameCount        : 217186
FromStats_StreamSize        : 1326075069
Audio
ID                          : 2
Format                      : AC-3
Format/Info                 : Audio Coding 3
Format settings, Endianness : Big
Codec ID                    : A_AC3
Duration                    : 2 h 30 min
Bit rate mode               : Constant
Bit rate                    : 192 kb/s
Channel(s)                  : 2 channels
Channel positions           : Front: L R
Sampling rate               : 48.0 kHz
Frame rate                  : 31.250 FPS (1536 SPF)
Bit depth                   : 16 bits
Compression mode            : Lossy
Stream size                 : 207 MiB (14%)
Title                       : Original
Language                    : English
Service kind                : Complete Main
Default                     : Yes
Forced                      : No
Text
ID                          : 3
Format                      : UTF-8
Codec ID                    : S_TEXT/UTF8
Codec ID/Info               : UTF-8 Plain Text
Title                       : Full
Language                    : Russian
Default                     : Yes
Forced                      : No

Пример субтитров

15
00:01:20,459 --> 00:01:23,186
Я предварительно
разделю мой рассказ
16
00:01:23,221 --> 00:01:26,534
на пять инцидентов,
выбранных наугад
17
00:01:26,569 --> 00:01:28,743
за двенадцатилетний период.
18
00:01:55,529 --> 00:01:59,049
Я тут тупо стою
с домкратом в руках.
19
00:01:59,084 --> 00:02:01,569
Он не работает.
20
00:02:01,604 --> 00:02:04,193
Можно одолжить
у вас домкрат?

Скриншоты



[galltoto.com]_t_5661593.torrent
Торрент: Зарегистрирован ·  [ 2019-01-02 22:29 ] ·  90cbd9544caf79a5760218fdf4428c0abcf6e705

15 KB

Статус: проверено
Скачан: 0 раз
Размер: 1.44 GB
Оценка: 
(Голосов: 0)
Сказали спасибо: 0  Спасибо
Похожие темы
[Профиль]    [ЛС]
Показать сообщения:    
Ответить на тему

Текущее время: Сегодня 12:48

Часовой пояс: GMT + 7



Вы не можете начинать темы
Вы не можете отвечать на сообщения
Вы не можете редактировать свои сообщения
Вы не можете удалять свои сообщения
Вы не можете голосовать в опросах
Вы не можете прикреплять файлы к сообщениям
Вы можете скачивать файлы


Play Movie | Klein- & Leichtkraftradteile | Bloody Horrors