Зимний ребёнок / L\'enfant de l\'hiver (Оливье Ассайас / Olivier Assayas) [1989, Франция, драма, мелодрама, DVDRip] VO (Олег Воротилин) + Sub Rus + Original Fra

Ответить на тему
Статистика раздачи [Обновить пиров]
Размер:  1.12 GB   |    Зарегистрирован:  15 дней   |    Скачан:  0 раз

Полного источника не было: Никогда

 
   
 
 
 
Автор Сообщение

galltoto.com

Создавать темы 02-Янв-2019 22:29

[Цитировать]

Зимний ребёнок / L'enfant del'hiver
Страна: Франция
Жанр: драма, мелодрама
Год выхода: 1989
Продолжительность: 01:20:03
Перевод: Одноголосый закадровый Олег Воротилин по субтитрам Zinov'ev
Субтитры: русские
Оригинальная аудиодорожка: французский
Режиссер: Оливье Ассайас / Olivier Assayas
В ролях: Клотильд де Байзе, Мишель Феллер, Мари Матерон, Жан-Филипп Экоффей, Жерар Блен, Анук Гринбер, Натали Ришар, Ив Данжерфильд, Пьеррик Мескам, Виржини Тевене
Описание: "Интимная драма о муках неразделённой любви, равнодушии и эгоизме мужчин, чувствительности и беззащитности женщин, всеобщем одиночестве всех этих «зимних детей», неприкаянных и опустошённых, на поверку оказывается мрачнее и безысходнее, чем дебютная лента Оливье Ассайаса «Беспорядок». 34-летний французский режиссёр пессимистически и с мизантропией отображает холод и тьму, существующие внутри и вне героев, которые не могут обрести успокоение и надежду в своём почти сомнамбулическом состоянии, словно на рубеже между жизнью и смертью. Театр сильных страстей, заявленный ещё в «Свидании» Андре Тешине по сценарию Ассайаса, превращается в игру теней, бесплотных сущностей, омертвевших чувств, когда уже кажется, что вовсе нет никакой разницы между пребыванием на этом или том свете." Сергей Кудрявцев
Доп. информация: Второй фильм Оливье Ассайаса, одного из ведущих современных французских режиссёров, пятикратного участника основного конкурса Каннского кинофестиваля.
Сэмпл: http://yadi.sk/i/qaYlzJCdpQDX3w
Качество видео: DVDRip
Формат файла: MKV
Видео: AVC, 1500 kbps, 720*384 (1,85:1), 25.000 fps
Аудио 1: AC-3, 192 Kbps, 2 channels, 48.0 KHz русский
Аудио 2: AC-3, 320 Kbps, 2 channels, 48.0 KHz французский
Формат файла субтитров: softsub (SRT)

MediaInfo

ОбщееУникальный идентификатор : 186609589641652624631747795788928081934 (0x8C63B31CEC1358A0BA9029854D13600E)Полное имя : E:\Видео\ы\Зимний ребёнок\l'enfant de l'hiver.mkvФормат файла : MatroskaВерсия формата : Version 2Размер файла : 1,12 ГбайтПродолжительность : 1 ч. 20 м.Общий поток : 2011 Кбит/секДата кодирования : UTC 2018-12-21 19:10:05Программа кодирования : mkvmerge v4.1.1 ('Bouncin' Back') сборка от Jul 3 2010 22:54:08Библиотека кодирования : libebml v1.0.0 + libmatroska v1.0.0
ВидеоИдентификатор : 1Формат файла : AVCФормат файла/Информация : Advanced Video CodecПрофиль формата : Main@L3Параметр CABAC формата : ДаПараметр ReFrames формата : 4 кадраИдентификатор кодека : V_MPEG4/ISO/AVCПродолжительность : 1 ч. 20 м.Битрейт : 1500 Кбит/секШирина : 720 пикселейВысота : 384 пикселяСоотношение сторон : 1,85:1Режим частоты кадров : ПостоянныйЧастота кадров : 25,000 кадров/секЦветовое пространство : YUVСубдискретизация насыщенности : 4:2:0Битовая глубина : 8 битТип развёртки : ПрогрессивнаяБит/(Пиксели*Кадры) : 0.217Размер потока : 835 Мбайт (73%)Библиотека кодирования : x264 core 112Настройки программы : cabac=1 / ref=2 / deblock=1:0:0 / analyse=0x1:0x111 / me=hex / subme=6 / psy=1 / psy_rd=1.00:0.00 / mixed_ref=0 / me_range=16 / chroma_me=1 / trellis=0 / 8x8dct=0 / cqm=0 / deadzone=21,11 / fast_pskip=1 / chroma_qp_offset=-2 / threads=3 / sliced_threads=0 / nr=0 / decimate=1 / interlaced=0 / constrained_intra=0 / bframes=2 / b_pyramid=2 / b_adapt=1 / b_bias=0 / direct=1 / weightb=0 / open_gop=0 / weightp=2 / keyint=250 / keyint_min=25 / scenecut=40 / intra_refresh=0 / rc_lookahead=40 / rc=abr / mbtree=1 / bitrate=1500 / ratetol=1.0 / qcomp=0.60 / qpmin=3 / qpmax=51 / qpstep=4 / ip_ratio=1.40 / aq=1:1.00Язык : EnglishDefault : ДаForced : НетЦветовой диапазон : LimitedОсновные цвета : BT.601 NTSCХарактеристики трансфера : BT.709Коэффициенты матрицы : BT.601
Аудио #1Идентификатор : 2Формат файла : AC-3Формат файла/Информация : Audio Coding 3Расширение режима : CM (complete main)Параметр Endianness формата : BigРежим смешивания : Header strippingИдентификатор кодека : A_AC3Продолжительность : 1 ч. 20 м.Вид битрейта : ПостоянныйБитрейт : 192 Кбит/секКаналы : 2 каналаРасположение каналов : Front: L RЧастота : 48,0 КГцЧастота кадров : 31,250 кадров/сек (1536 spf)Битовая глубина : 16 битМетод сжатия : С потерямиРазмер потока : 110 Мбайт (10%)Заголовок : Олег ВоротилинЯзык : RussianDefault : ДаForced : Нет
Аудио #2Идентификатор : 3Формат файла : AC-3Формат файла/Информация : Audio Coding 3Расширение режима : CM (complete main)Параметр Endianness формата : BigРежим смешивания : Header strippingИдентификатор кодека : A_AC3Продолжительность : 1 ч. 20 м.Вид битрейта : ПостоянныйБитрейт : 320 Кбит/секКаналы : 2 каналаРасположение каналов : Front: L RЧастота : 48,0 КГцЧастота кадров : 31,250 кадров/сек (1536 spf)Битовая глубина : 16 битМетод сжатия : С потерямиРазмер потока : 183 Мбайт (16%)Язык : FrenchDefault : НетForced : Нет
ТекстИдентификатор : 4Формат файла : UTF-8Идентификатор кодека : S_TEXT/UTF8Идентификатор кодека/Информация : UTF-8 Plain TextDefault : ДаForced : Нет

Скриншот c названием фильма

Скриншоты




Источник: Torrentc


[galltoto.com]_t_5663120.torrent
Торрент: Зарегистрирован ·  [ 2019-01-02 22:29 ] ·  016ed76de56240face18b02ac427470950170c4c

12 KB

Статус: проверено
Скачан: 0 раз
Размер: 1.12 GB
Оценка: 
(Голосов: 0)
Сказали спасибо: 0  Спасибо
Похожие темы
[Профиль]    [ЛС]
Показать сообщения:    
Ответить на тему

Текущее время: Сегодня 12:46

Часовой пояс: GMT + 7



Вы не можете начинать темы
Вы не можете отвечать на сообщения
Вы не можете редактировать свои сообщения
Вы не можете удалять свои сообщения
Вы не можете голосовать в опросах
Вы не можете прикреплять файлы к сообщениям
Вы можете скачивать файлы


Nagelknippers | Owlzz Bébé Bavoirs Double Couche 4 Pièces Nouveau Bébé Accessoires Nouvelle Mère Et Enfant Articles | It's a Wonderful Life (1947) James Stewart NEW$3.65 14d left