Дикая груша / Ahlat Agaci / The Wild Pear Tree (Нури Бильге Джейлан / Nuri Bilge Ceylan) [2018, Турция, Македония, Франция, Германия, Босния и Герцеговина, Болгария, Швеция, драма, HDRip] + Sub Rus(porcellus)+Original Turk

Ответить на тему
Статистика раздачи [Обновить пиров]
Размер:  2.19 GB   |    Зарегистрирован:  15 дней   |    Скачан:  0 раз

Полного источника не было: Никогда

 
   
 
 
 
Автор Сообщение

galltoto.com

Создавать темы 02-Янв-2019 22:29

[Цитировать]

Дикая груша / Ahlat Agaci / The Wild Pear Tree
Страна: Турция , Македония , Франция , Германия , Босния и Герцеговина , Болгария , Швеция
Жанр: драма
Год выхода: 2018
Продолжительность: 03:08:20
Перевод: субтитры - porcellus
Субтитры: русские
Оригинальная аудиодорожка: турецкая
Режиссер: Нури Бильге Джейлан / Nuri Bilge Ceylan
В ролях: Догу Демирколь, Мурат Джемджир, Бенну Йылдырымлар, Хазар Эргючлю, Серкан Кескин, Тамер Левент, Онер Эркан, Ахмет Рифат Шунгар, Акин Аксу, Кубилай Тунчер
Описание: Синан окончил педагогический колледж и вернулся в родной провинциальный городок. Ему предстоит определиться, как строить свою дальнейшую жизнь. Тысячи учителей сидят без работы и рады отправиться даже в глухие деревни востока страны. Перед Синаном пример собственного отца-учителя, потерявшего уважение окружающих, спуская семейные деньги и имущество на тотализаторе. Синан хочет стать писателем, и решает издать книгу, в которой с язвительностью описывает провинциальную действительность.

Сэмпл: http://multi-up.com/1218305
Качество видео: HDRip
Формат файла: AVI
Видео: 720x304 (2.37:1), 24.000 fps, XviD build 50 ~1462 kbps avg, 0.28 bit/pixel
Аудио: 48 kHz, AC3 Dolby Digital, 2/0 (L,R) ch, ~192 kbps
Формат файла субтитров: softsub (SRT)

MediaInfo

GeneralComplete name : H:\temp\Ahlat Agaci\Ahlat.Agaci.2018.aviFormat : AVIFormat/Info : Audio Video InterleaveFormat profile : OpenDMLFile size : 2.19 GiBDuration : 3 h 8 minOverall bit rate : 1 661 kb/sWriting application : VirtualDubMod 1.5.10.3 | www.virtualdub-fr.org || (build 2550/release)Writing library : VirtualDubMod build 2550/release
VideoID : 0Format : MPEG-4 VisualFormat profile : Advanced Simple@L5Format settings, BVOP : 1Format settings, QPel : NoFormat settings, GMC : No warppointsFormat settings, Matrix : Default (MPEG)Codec ID : XVIDCodec ID/Hint : XviDDuration : 3 h 8 minBit rate : 1 458 kb/sWidth : 720 pixelsHeight : 304 pixelsDisplay aspect ratio : 2.35:1Frame rate : 24.000 FPSColor space : YUVChroma subsampling : 4:2:0Bit depth : 8 bitsScan type : ProgressiveCompression mode : LossyBits/(Pixel*Frame) : 0.277Stream size : 1.92 GiB (88%)Writing library : XviD 1.2.1 (UTC 2008-12-04)
AudioID : 1Format : AC-3Format/Info : Audio Coding 3Mode extension : CM (complete main)Format settings, Endianness : BigCodec ID : 2000Duration : 3 h 8 minBit rate mode : ConstantBit rate : 192 kb/sChannel(s) : 2 channelsChannel positions : Front: L RSampling rate : 48.0 kHzFrame rate : 31.250 FPS (1536 spf)Bit depth : 16 bitsCompression mode : LossyStream size : 259 MiB (12%)Alignment : Split accross interleavesInterleave, duration : 42 ms (1.00 video frame)Interleave, preload duration : 500 ms

Скриншот c названием фильма

Фрагмент субтитров

2
00:02:28,125 --> 00:02:29,625
Синан. Как дела?
3
00:02:29,750 --> 00:02:30,542
Отлично, спасибо.
4
00:02:30,667 --> 00:02:31,792
Заходи на чай.
5
00:02:31,917 --> 00:02:34,375
Не сейчас. Мне нужно домой.
6
00:02:34,500 --> 00:02:36,417
Дом никуда не денется!
7
00:02:36,542 --> 00:02:38,292
Нужно отнести вещи.
8
00:02:38,417 --> 00:02:39,625
Где ты пропадал?
9
00:02:39,750 --> 00:02:42,083
В колледже, в Чанаккале. Вот, окончил.
10
00:02:42,208 --> 00:02:44,958
Ничего себе! Поздравляю!
11
00:02:45,083 --> 00:02:45,875
Благодарю.
12
00:02:46,000 --> 00:02:48,667
Ну, и как там житье-бытье?
13
00:02:48,792 --> 00:02:50,958
Отстой, как и везде, если нету денег.
14
00:02:51,083 --> 00:02:53,625
Точно. Нет денег - нет счастья.
15
00:02:53,750 --> 00:02:54,458
Именно.
16
00:02:54,542 --> 00:02:56,125
У твоих родителей все в порядке?
17
00:02:56,250 --> 00:02:58,708
Надеюсь. Скоро узнаю.
18
00:02:58,833 --> 00:02:59,750
Синан.
19
00:02:59,875 --> 00:03:00,917
Да?
20
00:03:02,875 --> 00:03:04,917
Я одолжил твоему отцу
21
00:03:05,208 --> 00:03:07,167
три золотых монеты.
22
00:03:07,292 --> 00:03:09,542
Четыре месяца назад.
Должно быть, он забыл.


[galltoto.com]_t_5663781.torrent
Торрент: Зарегистрирован ·  [ 2019-01-02 22:29 ] ·  6d178fdd3711ab76c96ed2f368b1061319c0a8af

12 KB

Статус: проверено
Скачан: 0 раз
Размер: 2.19 GB
Оценка: 
(Голосов: 0)
Сказали спасибо: 0  Спасибо
Похожие темы
[Профиль]    [ЛС]
Показать сообщения:    
Ответить на тему

Текущее время: Сегодня 12:45

Часовой пояс: GMT + 7



Вы не можете начинать темы
Вы не можете отвечать на сообщения
Вы не можете редактировать свои сообщения
Вы не можете удалять свои сообщения
Вы не можете голосовать в опросах
Вы не можете прикреплять файлы к сообщениям
Вы можете скачивать файлы


Norway Pilotenjacke 4in1 Winter Arbeitsjacke Berufsjacke Winterjacke gefüttert | Lakana Wattanawongsiri | 20L Mannol Automatikgetriebe Öl ATF Multivehicle Getriebeöl MN8218 / VW Audi BMW