Рома / Roma (Альфонсо Куарон / Alfonso Cuarón) [2018, Мексика, США, драма, WEBRip-AVC] Sub (Rus, Spa) + Original

Ответить на тему
Статистика раздачи [Обновить пиров]
Размер:  2.19 GB   |    Зарегистрирован:  15 дней   |    Скачан:  0 раз

Полного источника не было: Никогда

 
   
 
 
 
Автор Сообщение

galltoto.com

Создавать темы 02-Янв-2019 22:29

[Цитировать]

РомаRoma- Год выхода: 2018
Страна: Мексика, США
Жанр: драма-Продолжительность: 02:14:49
Перевод: Субтитры
Субтитры: русские (Сергей Лев), испанские (José Luis Saturno)
Оригинальная аудиодорожка: испанский, миштекский, английский и др.-Режиссёр: Альфонсо Куарон / Alfonso Cuarón
В ролях: Ялица Апарисио, Марина де Тавира, Диего Кортина Отри, Карлос Перальта, Марко Граф, Даниэла Демеса, Нэнси Гарсия Гарсия, Вероника Гарсия, Энди Кортес, Фернандо Гредиага, Хорхе Антонио Герреро, Хосе Мануэль Герреро Мендоса, Латинский любовник, Зарела Лизбет Чинолла Ареллано, Хосе Луис Лопес Гомес и др.-Описание: В основе сюжета ленты — история жизни обычной семьи среднего класса в Мехико в начале 1970-х годов. Отец редко бывает дома, мать воспитывает четырёх детей, опираясь на помощь двух служанок родом из местных индейцев. Судьбу героев переламывают студенческие беспорядки во время католического праздника 10 июня 1971 года, когда демонстранты были расстреляны солдатами.-КиноПоиск | IMDb | Sample-Качество: WEBRip-AVC (Источник: Torrentc Roma.2018.1080p.WEB-DL.x264-iKA)
Формат файла: MKV
Видео: x264, 1152x482 (2.40:1), 23.976 fps, ~1875 kbps avg, 0.141 bit/pixel
Аудио: Multi 48.0 KHz, EАC3, 3/2 (L,C,R,l,r) + LFE ch, ~448.00 kbps avg |Original|
Формат файла субтитров: softsub (SRT)-

"][font="Arial


Рип - whip93.

Фрагмент субтитров

1
00:00:21,604 --> 00:00:23,606
NETFLIX ПРЕДСТАВЛЯЕТ
2
00:00:38,621 --> 00:00:42,459
АНГЛИЙСКИЙ И ИСПАНСКИЙ ТЕКСТ — БЕЛЫМ
[ МИШТЕКСКАЯ РЕЧЬ В СКОБКАХ ]
3
00:00:42,542 --> 00:00:44,085
ДРУГИЕ ЯЗЫКИ БЕЗ СУБТИТРОВ
4
00:04:31,396 --> 00:04:33,022
Освежись, Боррас!
5
00:06:12,163 --> 00:06:14,207
- [  Подруга, подруга. ]
- [ Да? ]
6
00:06:15,375 --> 00:06:18,378
- [  Уже почти час дня.  ]
- [ Я иду! ]
7
00:06:40,608 --> 00:06:42,985
- [  Подруга, мои ключи...  ]
- [  Вот. ]
8
00:06:56,374 --> 00:06:58,084
- [  Я ушла.  ]
- [  Счастливо. ]
9
00:07:03,214 --> 00:07:04,424
Боррас, кыш обратно!
10
00:07:36,456 --> 00:07:39,375
- Не дай ему выскользнуть.
- Привет, Боррас.
11
00:07:44,630 --> 00:07:47,258
[ Подруга, подруга!
Тебе звонок от Фермина. ]
12
00:07:47,341 --> 00:07:49,051
- Бегу-бегу!
- Что ты сказала?
13
00:07:53,931 --> 00:07:57,351
- [ Иди, иди. ]
- [ Ладно, потом расскажешь. ]
14
00:07:58,644 --> 00:08:00,480
- Что вы говорите?
- Иди наверх.
15
00:08:02,398 --> 00:08:04,192
Не говори так непонятно.
16
00:08:07,069 --> 00:08:07,904
Иди.
17
00:08:23,211 --> 00:08:26,756
- [ Ну и что сказал Фермин? ]
- [ Только привет передал. ]
18
00:08:26,839 --> 00:08:29,967
[ Ага, конечно. ]
Вы встречаетесь!
19
00:08:30,301 --> 00:08:34,555
[ Ещё чего. ]
Он мне просто друг.
20
00:08:35,139 --> 00:08:38,351
Да и потом, ты нас познакомила.

MediaInfo | x264 logx264 log

---[Information] [23.12.2018 12:53:55] raw [info]: 1152x482p 1:1 @ 24000/1001 fps (cfr)
---[Information] [23.12.2018 12:53:55] x264 [info]: using SAR=1/1
---[Information] [23.12.2018 12:53:55] x264 [info]: using cpu capabilities: MMX2 SSE2Fast SSSE3 SSE4.2 AVX
---[Information] [23.12.2018 12:53:55] x264 [info]: profile High, level 4.1, 4:2:0, 8-bit
---[Information] [23.12.2018 18:35:43] x264 [info]: frame I:962 Avg QP:14.90 size: 93495
---[Information] [23.12.2018 18:35:43] x264 [info]: frame P:42881 Avg QP:17.91 size: 20870
---[Information] [23.12.2018 18:35:43] x264 [info]: frame B:150110 Avg QP:20.14 size: 6062
---[Information] [23.12.2018 18:35:43] x264 [info]: consecutive B-frames: 1.5% 2.5% 7.2% 28.7% 17.6% 36.2% 1.6% 0.9% 2.2% 0.7% 0.6% 0.3%
---[Information] [23.12.2018 18:35:43] x264 [info]: mb I I16..4: 4.4% 59.1% 36.5%
---[Information] [23.12.2018 18:35:43] x264 [info]: mb P I16..4: 0.2% 5.0% 2.0% P16..4: 27.9% 26.8% 12.9% 3.1% 0.6% skip:21.5%
---[Information] [23.12.2018 18:35:43] x264 [info]: mb B I16..4: 0.0% 0.8% 0.3% B16..8: 25.6% 13.7% 2.8% direct: 3.5% skip:53.2% L0:37.5% L1:46.8% BI:15.7%
---[Information] [23.12.2018 18:35:43] x264 [info]: 8x8 transform intra:67.4% inter:49.1%
---[Information] [23.12.2018 18:35:43] x264 [info]: coded y,uvDC,uvAC intra: 88.6% 0.1% 0.1% inter: 14.8% 0.0% 0.0%
---[Information] [23.12.2018 18:35:43] x264 [info]: i16 v,h,dc,p: 21% 19% 2% 58%
---[Information] [23.12.2018 18:35:43] x264 [info]: i8 v,h,dc,ddl,ddr,vr,hd,vl,hu: 13% 14% 6% 8% 11% 11% 13% 11% 15%
---[Information] [23.12.2018 18:35:43] x264 [info]: i4 v,h,dc,ddl,ddr,vr,hd,vl,hu: 25% 10% 5% 7% 11% 11% 11% 9% 12%
---[Information] [23.12.2018 18:35:43] x264 [info]: i8c dc,h,v,p: 37% 62% 1% 0%
---[Information] [23.12.2018 18:35:43] x264 [info]: Weighted P-Frames: Y:2.0% UV:0.0%
---[Information] [23.12.2018 18:35:43] x264 [info]: ref P L0: 50.5% 12.6% 14.1% 5.0% 4.0% 3.0% 2.6% 1.4% 1.4% 1.2% 1.1% 1.0% 1.0% 1.1% 0.1% 0.0%
---[Information] [23.12.2018 18:35:43] x264 [info]: ref B L0: 80.3% 8.4% 4.1% 1.9% 1.3% 1.0% 0.8% 0.5% 0.5% 0.4% 0.4% 0.3% 0.2%
---[Information] [23.12.2018 18:35:43] x264 [info]: ref B L1: 96.2% 3.8%
---[Information] [23.12.2018 18:35:43] x264 [info]: kb/s:1873.86
---[Information] [23.12.2018 18:35:43] encoded 193953 frames, 9.46 fps, 1873.86 kb/s
General
Unique ID : 159606153840698578632489806867896684778 (0x781306EFF63DD228C2788E64AFA750EA)
Complete name : C:\Фильмы\Roma.2018.WEBRip.DD5.1.x264.-whip93.mkv
Format : Matroska
Format version : Version 4 / Version 2
File size : 2.19 GiB
Duration : 2 h 15 min
Overall bit rate : 2 317 kb/s
Movie name : Рома | Roma (2018) - Release by whip93
Encoded date : UTC 2018-12-23 15:52:59
Writing application : mkvmerge v28.0.0 ('Voice In My Head') 64-bit
Writing library : libebml v1.3.6 + libmatroska v1.4.9
Video
ID : 1
Format : AVC
Format/Info : Advanced Video Codec
Format profile : High@L4.1
Format settings : CABAC / 14 Ref Frames
Format settings, CABAC : Yes
Format settings, ReFrames : 14 frames
Codec ID : V_MPEG4/ISO/AVC
Duration : 2 h 14 min
Bit rate : 1 875 kb/s
Width : 1 152 pixels
Height : 482 pixels
Display aspect ratio : 2.40:1
Frame rate mode : Constant
Frame rate : 23.976 (24000/1001) FPS
Color space : YUV
Chroma subsampling : 4:2:0
Bit depth : 8 bits
Scan type : Progressive
Bits/(Pixel*Frame) : 0.141
Stream size : 1.76 GiB (81%)
Title : Original
Writing library : x264 core 157 r2932 303c484
Encoding settings : cabac=1 / ref=14 / deblock=1:-3:-3 / analyse=0x3:0x133 / me=umh / subme=11 / psy=1 / psy_rd=1.00:0.00 / mixed_ref=1 / me_range=32 / chroma_me=1 / trellis=2 / 8x8dct=1 / cqm=0 / deadzone=21,11 / fast_pskip=0 / chroma_qp_offset=-2 / threads=12 / lookahead_threads=3 / sliced_threads=0 / nr=0 / decimate=1 / interlaced=0 / bluray_compat=0 / constrained_intra=0 / bframes=11 / b_pyramid=2 / b_adapt=2 / b_bias=0 / direct=1 / weightb=1 / open_gop=0 / weightp=2 / keyint=240 / keyint_min=23 / scenecut=40 / intra_refresh=0 / rc_lookahead=90 / rc=2pass / mbtree=0 / bitrate=1875 / ratetol=1.0 / qcomp=0.72 / qpmin=0 / qpmax=69 / qpstep=4 / cplxblur=20.0 / qblur=0.5 / vbv_maxrate=62500 / vbv_bufsize=78125 / nal_hrd=none / filler=0 / ip_ratio=1.40 / pb_ratio=1.30 / aq=3:0.80
Language : Spanish
Default : Yes
Forced : No
Color range : Limited
Color primaries : BT.709
Transfer characteristics : BT.709
Matrix coefficients : BT.709
Audio
ID : 2
Format : E-AC-3
Format/Info : Enhanced Audio Coding 3
Format profile : E-AC-3+Atmos / E-AC-3
Codec ID : A_EAC3
Duration : 2 h 15 min
Bit rate mode : Constant
Bit rate : 448 kb/s
Channel(s) : 15 objects / 6 channels
Channel positions : 15 objects / Front: L C R, Side: L R, LFE
Sampling rate : 48.0 kHz
Frame rate : 187.500 FPS (256 SPF)
Compression mode : Lossy
Stream size : 433 MiB (19%)
Title : Original
Language : Multiple languages
Service kind : Complete Main
Default : Yes
Forced : No
Text #1
ID : 3
Format : UTF-8
Codec ID : S_TEXT/UTF8
Codec ID/Info : UTF-8 Plain Text
Duration : 2 h 14 min
Bit rate : 51 b/s
Count of elements : 937
Stream size : 50.2 KiB (0%)
Title : Сергей Лев
Language : Russian
Default : Yes
Forced : No
Text #2
ID : 4
Format : UTF-8
Codec ID : S_TEXT/UTF8
Codec ID/Info : UTF-8 Plain Text
Duration : 2 h 14 min
Bit rate : 51 b/s
Count of elements : 1636
Stream size : 50.7 KiB (0%)
Title :
Language : Spanish
Default : No
Forced : No

Скриншоты

-


[galltoto.com]_t_5663975.torrent
Торрент: Зарегистрирован ·  [ 2019-01-02 22:29 ] ·  f81d3fb21d69e409b9a97b5ae9e361170849971a

22 KB

Статус: проверено
Скачан: 0 раз
Размер: 2.19 GB
Оценка: 
(Голосов: 0)
Сказали спасибо: 0  Спасибо
Похожие темы
[Профиль]    [ЛС]
Показать сообщения:    
Ответить на тему

Текущее время: Сегодня 12:45

Часовой пояс: GMT + 7



Вы не можете начинать темы
Вы не можете отвечать на сообщения
Вы не можете редактировать свои сообщения
Вы не можете удалять свои сообщения
Вы не можете голосовать в опросах
Вы не можете прикреплять файлы к сообщениям
Вы можете скачивать файлы


Watch Movie | we happy few | November 8, 2018