Портленд / Portland (Нильс Арден Оплев / Niels Arden Oplev) [1996, Дания, криминал, драма, DVDRip] VO (allecs2010) + Original Dan

Ответить на тему
Статистика раздачи [Обновить пиров]
Размер:  1.46 GB   |    Зарегистрирован:  15 дней   |    Скачан:  0 раз

Полного источника не было: Никогда

 
   
 
 
 
Автор Сообщение

galltoto.com

Создавать темы 02-Янв-2019 22:29

[Цитировать]

Портленд / Portland
Страна: Дания
Жанр: криминал, драма
Год выхода: 1996
Продолжительность: 01:39:24
-
Перевод: Одноголосый закадровый allecs2010 по субтитрам sombre soul
Субтитры: нет
Оригинальная аудиодорожка: датский
-
Режиссер: Нильс Арден Оплев / Niels Arden Oplev
В ролях: Андерс В. Бертельсен (Янус), Михаэль Мюллер (Якоб), Ульрих Томсен (Лассе), Ибен Яйле (Ева), Бор Ове (Кай), Бирте Нойманн (мать Якоба и Януса), Бьярне Хенриксен (полицейский)
-
Описание: Янус, недавно вышедший из тюрьмы, находит своего младшего брата Якоба, угоняет машину и в кафе «Тевтон» встречается с главарем банды Лассе. Тот подселяет Януса в квартиру своей сестры — Евы, а затем дает ему поручение пойти к некоему старику и забрать партию наркотиков, которую Лассе собирается продавать. Дела обстоят не важно, а Янус влюбляется в Еву, и начинаются их нелегкие взаимоотношения.
-
Доп. информация: Присутствует ненормативная лексика
-
Сэмпл: http://sendfile.su/1463913
-
Качество видео: DVDRip отсюда http://Torrentc/forum/viewtopic.php?t=4440704
Формат файла: AVI
Видео: XviD, 720x392, 25 fps, 1707 kbps, 0.242 bit/pixel
Аудио 1: AC3, 48 kHz, 2 ch, 192 kbps RUS
Аудио 2: AC3, 48 kHz, 2 ch, 192 kbps DAN

MediaInfo

C:\Users\ALEX\Desktop\Фильмы\Portland.1996.RUS.DEN.DVDRip.XviD.AC3.avi General Complete name : C:\Users\ALEX\Desktop\Фильмы\Portland.1996.RUS.DEN.DVDRip.XviD.AC3.avi Format : AVI Format/Info : Audio Video Interleave File size : 1.46 GiB Duration : 1h 39mn Overall bit rate : 2 106 Kbps Writing application : VirtualDubMod 1.5.10.2 (build 2542/release) Writing library : VirtualDubMod build 2542/release Video #0 ID : 0 Format : MPEG-4 Visual Format profile : Advanced Simple@L5 Format settings, BVOP : 2 Format settings, QPel : No Format settings, GMC : No warppoints Format settings, Matrix : Custom Codec ID : XVID Codec ID/Hint : XviD Duration : 1h 39mn Bit rate : 1 707 Kbps Width : 720 pixels Height : 392 pixels Display aspect ratio : 16:9 Frame rate : 25.000 fps Color space : YUV Chroma subsampling : 4:2:0 Bit depth : 8 bits Scan type : Progressive Compression mode : Lossy Bits/(Pixel*Frame) : 0.242 Stream size : 1.19 GiB (81%) Writing library : XviD 1.2.1 (UTC 2008-12-04) Audio #1 ID : 1 Format : AC-3 Format/Info : Audio Coding 3 Mode extension : CM (complete main) Codec ID : 2000 Duration : 1h 39mn Bit rate mode : Constant Bit rate : 192 Kbps Channel(s) : 2 channels Channel positions : Front: L R Sampling rate : 48.0 KHz Bit depth : 16 bits Compression mode : Lossy Stream size : 137 MiB (9%) Alignment : Split accross interleaves Interleave, duration : 40 ms (1.00 video frame) Interleave, preload duration : 500 ms Audio #2 ID : 2 Format : AC-3 Format/Info : Audio Coding 3 Mode extension : CM (complete main) Codec ID : 2000 Duration : 1h 39mn Bit rate mode : Constant Bit rate : 192 Kbps Channel(s) : 2 channels Channel positions : Front: L R Sampling rate : 48.0 KHz Bit depth : 16 bits Compression mode : Lossy Stream size : 136 MiB (9%) Alignment : Split accross interleaves Interleave, duration : 40 ms (1.00 video frame) Interleave, preload duration : 500 ms

Скриншоты



[galltoto.com]_t_5664715.torrent
Торрент: Зарегистрирован ·  [ 2019-01-02 22:29 ] ·  71558a427d28b54e70f678ba80d428e8e41a8bd9

15 KB

Статус: проверено
Скачан: 0 раз
Размер: 1.46 GB
Оценка: 
(Голосов: 0)
Сказали спасибо: 0  Спасибо
Похожие темы
[Профиль]    [ЛС]
Показать сообщения:    
Ответить на тему

Текущее время: Сегодня 12:38

Часовой пояс: GMT + 7



Вы не можете начинать темы
Вы не можете отвечать на сообщения
Вы не можете редактировать свои сообщения
Вы не можете удалять свои сообщения
Вы не можете голосовать в опросах
Вы не можете прикреплять файлы к сообщениям
Вы можете скачивать файлы


Awkward. | Miss Monochrome: The Animation 3 | Novelas Amar a muerte 1x30