Точка кипения / Счет 3-4 в октябре / Boiling Point / 3-4 x jûgatsu (Такеши Китано / Takeshi Kitano) [1990, Япония, боевик, комедия, криминал, BDRip] AVO (Юрий Сербин)

Ответить на тему
Статистика раздачи [Обновить пиров]
Размер:  1.46 GB   |    Зарегистрирован:  15 дней   |    Скачан:  0 раз

Полного источника не было: Никогда

 
   
 
 
 
Автор Сообщение

galltoto.com

Создавать темы 02-Янв-2019 22:29

[Цитировать]

Точка кипения / Счет 3-4 в октябре / Boiling Point / 3-4 x jûgatsu
Страна: Япония
Жанр: боевик, комедия, криминал
Год выхода: 1990
Продолжительность: 01:36:52
Перевод: Авторский (одноголосый закадровый) Юрий Сербин
Субтитры: нет
Режиссер: Такеши Китано / Takeshi Kitano
В ролях: Юрэй Янаги, Такеши Китано, Юрико Ишида, Гадаруканару Така, Хитоси Одзава, Хисаси Игава, Эри Фусэ, Шинобу Тцурута, Кацуо Токашики
Описание: Случилось так, что самый обыкновенный паренёк, работающий на автозаправке, столкнулся с самым обыкновенным, но от этого ничуть не менее отвратительным бандитом из «Якудзы», решившим помыть свою машину. Существует важное правило выживания в Японии: категорически запрещается вступать в конфронтацию с настоящим гангстером, какое бы настроение у тебя не было. К несчастью, герой фильма, Масаки, забыл об этом правиле. Роковая встреча на бензоколонке изменила жизни двух людей навсегда. Масаки пришлось очень хорошо узнать, что такое оружие, кровь и смерть…

Сэмпл: http://multi-up.com/1218691
Качество видео: BDRip [url=viewtopic.php?t=5309455(Источник: Torrentc BDRemux 1080p)[/url]
Формат файла: AVI
Видео: XviD 73, 720x384, (1,85:1), 23,976 fps, 1955 Кбит/с, 8 бит, 0.29 bit/pixel
Аудио: Русский (АС3, 2 ch (Front: L R), 48,0 KHz, 192 Kbps)

MediaInfo

ОбщееПолное имя : H:\Фильмы на трекер\Точка кипения (боевик, криминал 1990 год).aviФормат файла : AVIФормат файла/Информация : Audio Video InterleaveРазмер файла : 1,46 ГбайтПродолжительность : 1 ч. 36 м.Общий поток : 2156 Кбит/секПрограмма кодирования : VirtualDubMod 1.5.10.2 (build 2540/release)Библиотека кодирования : VirtualDubMod build 2540/release
ВидеоИдентификатор : 0Формат файла : MPEG-4 VisualПрофиль формата : Advanced Simple@L5Параметр BVOP формата : 2Параметр QPel формата : НетПараметр GMC формата : Без точки переходаПараметр матрицы формата : ВыборочнаяИдентификатор кодека : XVIDИдентификатор кодека/Подсказка : XviDПродолжительность : 1 ч. 36 м.Битрейт : 1955 Кбит/секШирина : 720 пикселейВысота : 384 пикселяСоотношение сторон : 1,85:1Частота кадров : 23,976 (23976/1000) кадра/секЦветовое пространство : YUVСубдискретизация насыщенности : 4:2:0Битовая глубина : 8 битТип развёртки : ПрогрессивнаяМетод сжатия : С потерямиБит/(Пиксели*Кадры) : 0.295Размер потока : 1,32 Гбайт (91%)Библиотека кодирования : XviD 73
АудиоИдентификатор : 1Формат файла : AC-3Формат файла/Информация : Audio Coding 3Расширение режима : CM (complete main)Параметр Endianness формата : BigИдентификатор кодека : 2000Продолжительность : 1 ч. 36 м.Вид битрейта : ПостоянныйБитрейт : 192 Кбит/секКаналы : 2 каналаРасположение каналов : Front: L RЧастота : 48,0 КГцЧастота кадров : 31,250 кадров/сек (1536 spf)Метод сжатия : С потерямиРазмер потока : 133 Мбайт (9%)Выравнивание : Разделение по промежуткамПродолжительность промежутка : 42 мс. (1,00 видеокадр)Время предзагрузки промежутка : 500 мс.

Скриншот c названием фильма

Скриншоты



[galltoto.com]_t_5666024.torrent
Торрент: Зарегистрирован ·  [ 2019-01-02 22:29 ] ·  6273dfb9606eafedc03130cc0300ad5faa21968e

15 KB

Статус: проверено
Скачан: 0 раз
Размер: 1.46 GB
Оценка: 
(Голосов: 0)
Сказали спасибо: 0  Спасибо
Похожие темы
[Профиль]    [ЛС]
Показать сообщения:    
Ответить на тему

Текущее время: Сегодня 12:48

Часовой пояс: GMT + 7



Вы не можете начинать темы
Вы не можете отвечать на сообщения
Вы не можете редактировать свои сообщения
Вы не можете удалять свои сообщения
Вы не можете голосовать в опросах
Вы не можете прикреплять файлы к сообщениям
Вы можете скачивать файлы


The Tempest | Todo, todo (2017) 1 LINK Latino HD | GOLDHAHN-Luxus-60 schwarze Seiten A4 Briefmarkenalbum Einsteckbuch