Мост искусств / Le pont des Arts / The Bridge of Arts (Эжен Грин / Eugène Green) [2004, Франция, драма, триллер, DVDRip] VO (Александр Дасевич)

Ответить на тему
Статистика раздачи [Обновить пиров]
Размер:  1.46 GB   |    Зарегистрирован:  15 дней   |    Скачан:  0 раз

Полного источника не было: Никогда

 
   
 
 
 
Автор Сообщение

galltoto.com

Создавать темы 02-Янв-2019 22:29

[Цитировать]

Мост искусств / Le pont des Arts / The Bridge of Arts
Страна: Франция
Жанр: драма, триллер
Год выхода: 2004
Продолжительность: 02:02:19
Перевод: Одноголосый закадровый Александр Дасевич
Субтитры: нет
Режиссер: Эжен Грин / Eugène Green
В ролях: Адриан Мишо, Наташа Ренье, Алексис Лоре, Дени Подалидес, Оливье Гурме, Камиль Каррас, Жереми Ренье, Кристель Про, Бенжамин Лазар
Описание: Париж, 1979 – 1980. Сара – певица в квартете, исполняющем музыку в стиле барокко, поет "Плач Нимфы" Монтеверди, в то время как студент Паскаль все дальше и дальше оттягивает момент написания диссертации по философии. Это история невозможной любви между двумя одинаково несчастливыми людьми, которые никогда не встретятся....

Сэмпл: http://yadi.sk/i/qSUYUqowPBoC7g
Качество видео: DVDRip (Источник: Torrentc - DVD9)
Формат файла: AVI
Видео: XviD 73, 704x384, (1,85:1), 25,000 fps, 1494 Кбит/с, 8 бит
Аудио: Русский (АС3, 2 ch (Front: L R), 48,0 KHz, 244 Kbps)

MediaInfo

ОбщееПолное имя : H:\Фильмы на трекер\Мост Искусств (драма, триллер 2004 год).aviФормат файла : AVIФормат файла/Информация : Audio Video InterleaveРазмер файла : 1,46 ГбайтПродолжительность : 2 ч. 1 м.Общий поток : 1727 Кбит/секПрограмма кодирования : VirtualDubMod 1.5.10.3 | www.virtualdub-fr.org || (build 2550/release)Библиотека кодирования : VirtualDubMod build 2550/release
ВидеоИдентификатор : 0Формат файла : MPEG-4 VisualПрофиль формата : Advanced Simple@L5Параметр BVOP формата : 2Параметр QPel формата : НетПараметр GMC формата : Без точки переходаПараметр матрицы формата : ВыборочнаяИдентификатор кодека : XVIDИдентификатор кодека/Подсказка : XviDПродолжительность : 2 ч. 1 м.Битрейт : 1494 Кбит/секШирина : 704 пикселяВысота : 384 пикселяСоотношение сторон : 1,85:1Частота кадров : 25,000 кадров/секЦветовое пространство : YUVСубдискретизация насыщенности : 4:2:0Битовая глубина : 8 битТип развёртки : ПрогрессивнаяМетод сжатия : С потерямиБит/(Пиксели*Кадры) : 0.221Размер потока : 1,27 Гбайт (86%)Библиотека кодирования : XviD 73
АудиоИдентификатор : 1Формат файла : AC-3Формат файла/Информация : Audio Coding 3Расширение режима : CM (complete main)Параметр Endianness формата : BigИдентификатор кодека : 2000Продолжительность : 2 ч. 1 м.Вид битрейта : ПостоянныйБитрейт : 224 Кбит/секКаналы : 2 каналаРасположение каналов : Front: L RЧастота : 48,0 КГцЧастота кадров : 31,250 кадров/сек (1536 spf)Метод сжатия : С потерямиРазмер потока : 194 Мбайт (13%)Выравнивание : Разделение по промежуткамПродолжительность промежутка : 40 мс. (1,00 видеокадр)Время предзагрузки промежутка : 500 мс.

Скриншот c названием фильма

Скриншоты



[galltoto.com]_t_5666087.torrent
Торрент: Зарегистрирован ·  [ 2019-01-02 22:29 ] ·  791b5f5d7efbe67dc0a7609eadeae62ce2c6d9fc

15 KB

Статус: проверено
Скачан: 0 раз
Размер: 1.46 GB
Оценка: 
(Голосов: 0)
Сказали спасибо: 0  Спасибо
Похожие темы
[Профиль]    [ЛС]
Показать сообщения:    
Ответить на тему

Текущее время: Сегодня 12:48

Часовой пояс: GMT + 7



Вы не можете начинать темы
Вы не можете отвечать на сообщения
Вы не можете редактировать свои сообщения
Вы не можете удалять свои сообщения
Вы не можете голосовать в опросах
Вы не можете прикреплять файлы к сообщениям
Вы можете скачивать файлы


WGM Khuntoria Couple | [ Zobacz pełny opis... ] | Regarder