Более странно, чем в раю / Stranger Than Paradise (Джим Джармуш / Jim Jarmusch) [1984, США, Германия, драма, триллер, BDRip] AVO (Юрий Сербин)

Ответить на тему
Статистика раздачи [Обновить пиров]
Размер:  1.36 GB   |    Зарегистрирован:  15 дней   |    Скачан:  0 раз

Полного источника не было: Никогда

 
   
 
 
 
Автор Сообщение

galltoto.com

Создавать темы 02-Янв-2019 22:29

[Цитировать]

Более странно, чем в раю / Stranger Than Paradise
Страна: США, Германия
Жанр: драма, триллер
Год выхода: 1984
Продолжительность: 01:29:03
Перевод: Авторский (одноголосый закадровый) Юрий Сербин
Субтитры: нет
Режиссер: Джим Джармуш / Jim Jarmusch
В ролях: Джон Лури, Эстер Балинт, Ричард Эдсон, Сесиллия Старк, Дэнни Розен, Том ДиЧилло, Ричард Боэ, Рокетс Редглэр, Харви Перр
Описание: Скучающие молодые люди Вилли и Эдди - бездельники и игроки. Их жизнь - такая же затхлая помойка, как и квартал Манхеттена, в котором они обитают. Однако в один прекрасный день к Вилли приезжает юная кузина Ева из Венгрии, и постепенно друзья решаются на перемены...

Сэмпл: http://yadi.sk/i/AXoquSqRz6kOQQ
Качество видео: BDRip (Источник: Torrentc BDRemux 1080p)
Формат файла: AVI
Видео: XviD 73, 720x400, (16:9), 23,976 fps, 1990 Кбит/с, 8 бит
Аудио: Русский (АС3, 2 ch (Front: L R), 48,0 KHz, 192 Kbps)

MediaInfo

ОбщееПолное имя : H:\Фильмы на трекер\Более странно, чем в раю (триллер, драма 1984 год).aviФормат файла : AVIФормат файла/Информация : Audio Video InterleaveРазмер файла : 1,36 ГбайтПродолжительность : 1 ч. 29 м.Общий поток : 2191 Кбит/секПрограмма кодирования : VirtualDubMod 1.5.10.2 (build 2540/release)Библиотека кодирования : VirtualDubMod build 2540/release
ВидеоИдентификатор : 0Формат файла : MPEG-4 VisualПрофиль формата : Advanced Simple@L5Параметр BVOP формата : 2Параметр QPel формата : НетПараметр GMC формата : Без точки переходаПараметр матрицы формата : ВыборочнаяИдентификатор кодека : XVIDИдентификатор кодека/Подсказка : XviDПродолжительность : 1 ч. 29 м.Битрейт : 1990 Кбит/секШирина : 720 пикселейВысота : 400 пикселейСоотношение сторон : 16:9Частота кадров : 23,976 (23976/1000) кадра/секЦветовое пространство : YUVСубдискретизация насыщенности : 4:2:0Битовая глубина : 8 битТип развёртки : ПрогрессивнаяМетод сжатия : С потерямиБит/(Пиксели*Кадры) : 0.288Размер потока : 1,24 Гбайт (91%)Библиотека кодирования : XviD 73
АудиоИдентификатор : 1Формат файла : AC-3Формат файла/Информация : Audio Coding 3Расширение режима : CM (complete main)Параметр Endianness формата : BigИдентификатор кодека : 2000Продолжительность : 1 ч. 29 м.Вид битрейта : ПостоянныйБитрейт : 192 Кбит/секКаналы : 2 каналаРасположение каналов : Front: L RЧастота : 48,0 КГцЧастота кадров : 31,250 кадров/сек (1536 spf)Метод сжатия : С потерямиРазмер потока : 122 Мбайт (9%)Выравнивание : Разделение по промежуткамПродолжительность промежутка : 42 мс. (1,00 видеокадр)Время предзагрузки промежутка : 500 мс.

Скриншот c названием фильма

Скриншоты



[galltoto.com]_t_5666676.torrent
Торрент: Зарегистрирован ·  [ 2019-01-02 22:29 ] ·  693de3748b00f5597c424fe58f24afa50a1fc15f

14 KB

Статус: проверено
Скачан: 0 раз
Размер: 1.36 GB
Оценка: 
(Голосов: 0)
Сказали спасибо: 0  Спасибо
Похожие темы
[Профиль]    [ЛС]
Показать сообщения:    
Ответить на тему

Текущее время: Сегодня 12:47

Часовой пояс: GMT + 7



Вы не можете начинать темы
Вы не можете отвечать на сообщения
Вы не можете редактировать свои сообщения
Вы не можете удалять свои сообщения
Вы не можете голосовать в опросах
Вы не можете прикреплять файлы к сообщениям
Вы можете скачивать файлы


Now season 06 episode 05 | Scooters, Brommers: Onderdelen | Top 10 People getting OWNED! 🔥