Пекинский велосипед / Shiqi sui de dan che / Beijing Bicycle (Ван Сяошуай / Xiaoshuai Wang) [2001, Китай, Франция, Тайвань, драма, DVDRip] DVO + Original Zho

Ответить на тему
Статистика раздачи [Обновить пиров]
Размер:  1.46 GB   |    Зарегистрирован:  15 дней   |    Скачан:  0 раз

Полного источника не было: Никогда

 
   
 
 
 
Автор Сообщение

galltoto.com

Создавать темы 02-Янв-2019 22:29

[Цитировать]

Пекинский велосипед / Shiqi sui de dan che / Beijing Bicycle
Страна: Китай, Франция, Тайвань
Жанр: драма
Год выхода: 2001
Продолжительность: 01:48:36
Перевод: Профессиональный (двухголосый закадровый)
Субтитры: нет
Оригинальная аудиодорожка: китайский
Режиссер: Ван Сяошуай / Xiaoshuai Wang
В ролях: Цуй Линь (Гуо), Ли Бинь (Чжан), Чжу Сюнь (Кин), Гао Юаньюань (Сяо), Ли Шуанг (Да Хуан), Чжао Ивей (отец), Панг Ян (мать), Се Чжан (управляющий), Ма Юхонь (бухгалтер)
Описание: Шестнадцатилетнему деревенскому парню крупно повезло. Приехав в Пекин, он нашел отличную работу в курьерской компании, выдавшей ему великолепный горный велосипед, который необходимо было выкупить. В тот момент, когда Гуе почти закончил выплаты, велосипед исчез. После долгих поисков пропажа нашлась, но у велосипеда был уже новый хозяин. Гуе приходит к решению выкрасть свое сокровище.
Доп. информация: Рип с этого DVD-9. В отличии от имеющегося уже релиза на трекере в таком же формате, здесь другой источник (PAL, там NTSC), а так же присутствует оригинальная звуковая дорожка.
Фильм сам по себе очень знаковый для китайского кинематографа, одного из наиболее известных китайских режиссёров шестого поколения пекинской киноакадемии, не зря получивший серебряного медведя берлинского кинофестивали и номинированный на золотого. Очень рекомендую :).
Сэмпл: http://sendfile.su/1465286
Качество видео: DVDRip
Формат файла: AVI
Видео: Xvid, 720x384, 25fps, ~1535kbps, 0.22 b/pf
Аудио: AC3, 48Khz, 192Kbps, 2ch, Russian
Аудио 2: AC3, 48Khz, 192Kbps, 2ch, Chinese

MediaInfo

Format : AVIFormat/Info : Audio Video InterleaveFile size : 1.46 GiBDuration : 1 h 48 minOverall bit rate : 1 930 kb/s
VideoID : 0Format : MPEG-4 VisualFormat profile : Advanced Simple@L5Format settings : BVOP2Format settings, BVOP : 2Format settings, QPel : NoFormat settings, GMC : No warppointsFormat settings, Matrix : Default (H.263)Codec ID : XVIDCodec ID/Hint : XviDDuration : 1 h 48 minBit rate : 1 535 kb/sWidth : 720 pixelsHeight : 384 pixelsDisplay aspect ratio : 1.85:1Frame rate : 25.000 FPSColor space : YUVChroma subsampling : 4:2:0Bit depth : 8 bitsScan type : ProgressiveCompression mode : LossyBits/(Pixel*Frame) : 0.222Stream size : 1.16 GiB (80%)Writing library : XviD 67
Audio #1ID : 1Format : AC-3Format/Info : Audio Coding 3Commercial name : Dolby DigitalCodec ID : 2000Duration : 1 h 48 minBit rate mode : ConstantBit rate : 192 kb/sChannel(s) : 2 channelsChannel layout : L RSampling rate : 48.0 kHzFrame rate : 31.250 FPS (1536 SPF)Bit depth : 16 bitsCompression mode : LossyStream size : 149 MiB (10%)Alignment : Aligned on interleavesInterleave, duration : 64 ms (1.60 video frames)Interleave, preload duration : 192 msTitle : Russian (DVO)Service kind : Complete Main
Audio #2ID : 2Format : AC-3Format/Info : Audio Coding 3Commercial name : Dolby DigitalCodec ID : 2000Duration : 1 h 48 minBit rate mode : ConstantBit rate : 192 kb/sChannel(s) : 2 channelsChannel layout : L RSampling rate : 48.0 kHzFrame rate : 31.250 FPS (1536 SPF)Bit depth : 16 bitsCompression mode : LossyStream size : 149 MiB (10%)Alignment : Aligned on interleavesInterleave, duration : 64 ms (1.60 video frames)Interleave, preload duration : 192 msTitle : ChineseService kind : Complete Main

Скриншот c названием фильма

Скриншоты




[galltoto.com]_t_5668143.torrent
Торрент: Зарегистрирован ·  [ 2019-01-02 22:29 ] ·  b9ce9481447139027f3ea9993e8e8cea2dc7d0dc

15 KB

Статус: проверено
Скачан: 0 раз
Размер: 1.46 GB
Оценка: 
(Голосов: 0)
Сказали спасибо: 0  Спасибо
Похожие темы
[Профиль]    [ЛС]
Показать сообщения:    
Ответить на тему

Текущее время: Сегодня 12:43

Часовой пояс: GMT + 7



Вы не можете начинать темы
Вы не можете отвечать на сообщения
Вы не можете редактировать свои сообщения
Вы не можете удалять свои сообщения
Вы не можете голосовать в опросах
Вы не можете прикреплять файлы к сообщениям
Вы можете скачивать файлы


Hide navigation | Haru wo Daite Ita Episode 1 English Subbed | The 100 S05E13 FiNAL FRENCH HDTV XviD-EXTREME