Зона военных действий / The War Zone (Тим Рот / Tim Roth) [1999, Великобритания, Италия, драма, WEB-DLRip] DVO (Другое кино) + Sub Rus, Eng + Original Eng

Ответить на тему
Статистика раздачи [Обновить пиров]
Размер:  1.77 GB   |    Зарегистрирован:  15 дней   |    Скачан:  0 раз

Полного источника не было: Никогда

 
   
 
 
 
Автор Сообщение

galltoto.com

Создавать темы 02-Янв-2019 22:29

[Цитировать]

Зона военных действий / The War Zone
Страна: Великобритания, Италия
Жанр: драма
Год выхода: 1999
Продолжительность: 01:39:05
Перевод: Профессиональный (двухголосый закадровый) - Другое кино
Субтитры: русские, английские
Оригинальная аудиодорожка: английский

Режиссер: Тим Рот / Tim Roth
В ролях: Аннабелл Эпсион, Кейт Эшфилд, Лара Белмонт, Фредди Канлифф, Колин Фаррелл, Эшлинг О’Салливан, Тильда Суинтон, Миган Торп, Ким Уолл, Рэй Уинстон
Описание: 15-летний Том переезжает вместе с семьей из Лондона в провинциальный Девон. Здесь ничего не происходит, только все время идет дождь. Хмурая погода — подходящий фон унылой повседневности. В доме царят отчужденность и равнодушие.
Мать семейства ждет третьего ребенка, но предстоящее событие трудно назвать желанным. Единственный человек, с которым Том в состоянии общаться, это старшая сестра Джесси, которую связывают какие-то странные отношения с отцом. Вскоре Том поймет, что неслучайно считал отца чужим человеком...

Сэмпл
Качество видео: WEB-DLRip [The.War.Zone.1999.1080p.AMZN.WEB-DL.]
Формат файла: AVI
Видео: 720x304 (2.37:1), 24 fps, XviD build 73 ~1901 kbps avg, 0.36 bit/pixel
Аудио: 48 kHz, AC3 Dolby Digital, 2 ch, ~192.00 kbps avg - двухголосый
Аудио: 48 kHz, AC3 Dolby Digital, 3/2 (L,C,R,l,r) + LFE ch, ~448 kbps - оригинал (отдельным файлом)
Формат файла субтитров: softsub (SRT)

Источник: Torrentc

http://Torrentc/forum/viewtopic.php?t=4031513 - перевод тот же

MediaInfo

GeneralComplete name : H:\The.War.Zone.1999.web-dlrip_[1.46]_[teko]\The.War.Zone.1999.web-dlrip_[1.46].aviFormat : AVIFormat/Info : Audio Video InterleaveFile size : 1.46 GiBDuration : 1h 39mnOverall bit rate : 2 103 KbpsWriting application : VirtualDubMod 1.5.10.3 | www.virtualdub-fr.org || (build 2550/release)Writing library : VirtualDubMod build 2550/release
VideoID : 0Format : MPEG-4 VisualFormat profile : Advanced Simple@L5Format settings, BVOP : 2Format settings, QPel : NoFormat settings, GMC : No warppointsFormat settings, Matrix : CustomCodec ID : XVIDCodec ID/Hint : XviDDuration : 1h 39mnBit rate : 1 902 KbpsWidth : 720 pixelsHeight : 304 pixelsDisplay aspect ratio : 2.35:1Frame rate : 24.000 fpsColor space : YUVChroma subsampling : 4:2:0Bit depth : 8 bitsScan type : ProgressiveCompression mode : LossyBits/(Pixel*Frame) : 0.362Stream size : 1.32 GiB (90%)Writing library : XviD 73
AudioID : 1Format : AC-3Format/Info : Audio Coding 3Mode extension : CM (complete main)Format settings, Endianness : BigCodec ID : 2000Duration : 1h 38mnBit rate mode : ConstantBit rate : 192 KbpsChannel(s) : 2 channelsChannel positions : Front: L RSampling rate : 48.0 KHzFrame rate : 31.250 fps (1536 spf)Compression mode : LossyDelay relative to video : 2s 500msStream size : 136 MiB (9%)Alignment : Split accross interleavesInterleave, duration : 42 ms (1.00 video frame)Interleave, preload duratio : 500 ms
:--


[galltoto.com]_t_5668194.torrent
Торрент: Зарегистрирован ·  [ 2019-01-02 22:29 ] ·  804beb3f17d712f7dee2a0d0f566a7f41de0954e

18 KB

Статус: проверено
Скачан: 0 раз
Размер: 1.77 GB
Оценка: 
(Голосов: 0)
Сказали спасибо: 0  Спасибо
Похожие темы
[Профиль]    [ЛС]
Показать сообщения:    
Ответить на тему

Текущее время: Сегодня 12:38

Часовой пояс: GMT + 7



Вы не можете начинать темы
Вы не можете отвечать на сообщения
Вы не можете редактировать свои сообщения
Вы не можете удалять свои сообщения
Вы не можете голосовать в опросах
Вы не можете прикреплять файлы к сообщениям
Вы можете скачивать файлы


NEW Sindy 2 Storey Doll's House for Dolls 18 Under (Pink) | USA | UK | | Chrome Housing Headlight Amber Corner Signal Reflector for 03-07 Honda Accord