Сквозь тусклое стекло / Как в зеркале / Through a Glass Darkly / Såsom i en spegel (Ингмар Бергман / Ingmar Bergman) [1961, Швеция, драма, BDRip] MVO + AVO (Казаков) + Sub Rus, Eng + Original Swe

Ответить на тему
Статистика раздачи [Обновить пиров]
Размер:  1.46 GB   |    Зарегистрирован:  15 дней   |    Скачан:  0 раз

Полного источника не было: Никогда

 
   
 
 
 
Автор Сообщение

galltoto.com

Создавать темы 02-Янв-2019 22:29

[Цитировать]

Сквозь тусклое стекло / Как в зеркале / Through a Glass Darkly / Såsom i en spegel

Страна: Швеция
Жанр: драма
Год выхода: 1961
Продолжительность: 01:30:15
Перевод: Профессиональный (многоголосый закадровый)
Перевод: Авторский (одноголосый закадровый) - Валерий Казаков
Субтитры: русские (В.Казаков; Л.Мерзон), английские (Criterion)
Оригинальная аудиодорожка: шведский

Режиссер: Ингмар Бергман / Ingmar Bergman
В ролях: Харриет Андерссон, Гуннар Бьёрнстранд, Макс фон Сюдов, Ларс Пассгорд
Описание: На безлюдном острове ужинает под луной с виду дружная семья: Давид, известный писатель, только что вернувшийся из Швейцарии и заканчивающий новую книгу, его дочь Карин с мужем Мартином, университетским профессором, и сын Фредрик по прозвищу Минус. Карин недавно прошла шоковую терапию, не гарантировавшую, впрочем, полнейшего её выздоровления; наутро ей станет хуже, а днём приступ повторится и усилится...
Сэмпл
Качество видео: BDRip
Формат файла: AVI
Видео: 656x480 (1.37:1), 23.976 fps, XviD build 73 ~1851 kbps avg, 0.25 bit/pixel
Аудио: 48 kHz, AC3 Dolby Digital, 2/0 (L,R) ch, ~192 kbps - многоголосый
Аудио: 48 kHz, AC3 Dolby Digital, 1/0 (C) ch, ~128 kbps - авторский
Аудио: 48 kHz, AC3 Dolby Digital, 1/0 (C) ch, ~128 kbps - оригинал
Формат файла субтитров: softsub (SRT)

Источник: Torrentc

http://Torrentc/forum/viewtopic.php?t=932213 - нарушение аспекта
720x480
Источник: Torrentc привел в реальном аспекте

MediaInfo

GeneralComplete name : H:\Through.a.Glass.Darkly.1961.bdrip_[1.46]_[teko]\Through.a.Glass.Darkly.1961.bdrip_[1.46].aviFormat : AVIFormat/Info : Audio Video InterleaveFile size : 1.46 GiBDuration : 1h 30mnOverall bit rate : 2 320 KbpsWriting application : VirtualDubMod 1.5.10.3 | www.virtualdub-fr.org || (build 2550/release)Writing library : VirtualDubMod build 2550/release
VideoID : 0Format : MPEG-4 VisualFormat profile : Advanced Simple@L5Format settings, BVOP : 2Format settings, QPel : NoFormat settings, GMC : No warppointsFormat settings, Matrix : CustomCodec ID : XVIDCodec ID/Hint : XviDDuration : 1h 30mnBit rate : 1 853 KbpsWidth : 656 pixelsHeight : 480 pixelsDisplay aspect ratio : 4:3Frame rate : 23.976 (23976/1000) fpsColor space : YUVChroma subsampling : 4:2:0Bit depth : 8 bitsScan type : ProgressiveCompression mode : LossyBits/(Pixel*Frame) : 0.245Stream size : 1.17 GiB (80%)Writing library : XviD 73
Audio #1ID : 1Format : AC-3Format/Info : Audio Coding 3Mode extension : CM (complete main)Format settings, Endianness : BigCodec ID : 2000Duration : 1h 30mnBit rate mode : ConstantBit rate : 192 KbpsChannel(s) : 2 channelsChannel positions : Front: L RSampling rate : 48.0 KHzFrame rate : 31.250 fps (1536 spf)Compression mode : LossyStream size : 124 MiB (8%)Alignment : Split accross interleavesInterleave, duration : 42 ms (1.00 video frame)Interleave, preload duratio : 500 ms
Audio #2ID : 2Format : AC-3Format/Info : Audio Coding 3Mode extension : CM (complete main)Format settings, Endianness : BigCodec ID : 2000Duration : 1h 30mnBit rate mode : ConstantBit rate : 128 KbpsChannel(s) : 1 channelChannel positions : Front: CSampling rate : 48.0 KHzFrame rate : 31.250 fps (1536 spf)Compression mode : LossyStream size : 82.6 MiB (6%)Alignment : Split accross interleavesInterleave, duration : 42 ms (1.00 video frame)Interleave, preload duratio : 500 ms
Audio #3ID : 3Format : AC-3Format/Info : Audio Coding 3Mode extension : CM (complete main)Format settings, Endianness : BigCodec ID : 2000Duration : 1h 30mnBit rate mode : ConstantBit rate : 128 KbpsChannel(s) : 1 channelChannel positions : Front: CSampling rate : 48.0 KHzFrame rate : 31.250 fps (1536 spf)Compression mode : LossyStream size : 82.6 MiB (6%)Alignment : Split accross interleavesInterleave, duration : 42 ms (1.00 video frame)Interleave, preload duratio : 500 ms

Скриншоты

:--


[galltoto.com]_t_5668230.torrent
Торрент: Зарегистрирован ·  [ 2019-01-02 22:29 ] ·  f5ca33c06955367616ccf43220e4e4888710c44b

15 KB

Статус: проверено
Скачан: 0 раз
Размер: 1.46 GB
Оценка: 
(Голосов: 0)
Сказали спасибо: 0  Спасибо
Похожие темы
[Профиль]    [ЛС]
Показать сообщения:    
Ответить на тему

Текущее время: Сегодня 13:31

Часовой пояс: GMT + 7



Вы не можете начинать темы
Вы не можете отвечать на сообщения
Вы не можете редактировать свои сообщения
Вы не можете удалять свои сообщения
Вы не можете голосовать в опросах
Вы не можете прикреплять файлы к сообщениям
Вы можете скачивать файлы


180 x 145cent Buchenwälder auf Papier NUR Tintenstrahlentwertung | Перу / Peru (2017) WEBRip 1080p | HDR | Knight Rider (2008)