(Ethereal, Neoclassic) [CD] Aura Noctis - Vitae Proelium - 2012, FLAC (image+.cue), lossless

Ответить на тему
Статистика раздачи [Обновить пиров]
Размер:  304 MB   |    Зарегистрирован:  1 месяц 15 дней   |    Скачан:  0 раз

Полного источника не было: Никогда

 
   
 
 
 
Автор Сообщение

galltoto.com

Создавать темы 06-Дек-2018 18:51

[Цитировать]

Aura Noctis / Vitae Proelium
[img=right]http://i.ibb.co/Cm9ndDH/Aura-Noctis-Vitae-Proelium-Cover.jpg[/img]
Жанр: Ethereal, Neoclassic
Носитель: CD
Страна-производитель диска (релиза): Spain
Год издания: 2012
Издатель (лейбл): In the Morningside Records
Номер по каталогу: Morning 019
Страна исполнителя (группы): Spain
Аудиокодек: FLAC (*.flac)
Тип рипа: image+.cue
Битрейт аудио: lossless
Продолжительность: 0:50:22
Источник (релизер): собственный рип
Наличие сканов в содержимом раздачи: да
Треклист:
01. Windtro (4:02)
02. Vitae Proelium (3:40)
03. El Cantar de las Hojas (3:20)
04. Inner Chaos (4:04)
05. Dances of the Soul (4:04)
06. Amissi (3:49)
07. Frater Mortis (2:11)
08. Lautir (4:25)
09. Arevaci (3:36)
10. Verna (3:54)
11. Un Lugar (4:52)
12. Quimera (3:38)
13. Omnia in Anima Manent (4:48)

Лог создания рипа

Exact Audio Copy V1.3 from 2. September 2016
EAC extraction logfile from 4. November 2018, 23:47
Aura Noctis / Vitae Proelium
Used drive : ASUS DRW-1612BL Adapter: 2 ID: 0
Read mode : SecureUtilize accurate stream : YesDefeat audio cache : YesMake use of C2 pointers : No
Read offset correction : 6Overread into Lead-In and Lead-Out : NoFill up missing offset samples with silence : YesDelete leading and trailing silent blocks : NoNull samples used in CRC calculations : YesUsed interface : Installed external ASPI interface
Used output format : User Defined EncoderSelected bitrate : 128 kBit/sQuality : HighAdd ID3 tag : NoCommand line compressor : C:\Program Files\EAC\Exact Audio Copy\Flac\flac.exeAdditional command line options : -V -8 -T "Date=%year%" -T "Genre=%genre%" %source%
TOC of the extracted CD
Track | Start | Length | Start sector | End sector --------------------------------------------------------- 1 | 0:00.00 | 4:02.03 | 0 | 18152 2 | 4:02.03 | 3:39.65 | 18153 | 34642 3 | 7:41.68 | 3:19.60 | 34643 | 49627 4 | 11:01.53 | 4:03.55 | 49628 | 67907 5 | 15:05.33 | 4:04.29 | 67908 | 86236 6 | 19:09.62 | 3:48.63 | 86237 | 103399 7 | 22:58.50 | 2:11.21 | 103400 | 113245 8 | 25:09.71 | 4:24.69 | 113246 | 133114 9 | 29:34.65 | 3:35.48 | 133115 | 149287 10 | 33:10.38 | 3:53.63 | 149288 | 166825 11 | 37:04.26 | 4:52.18 | 166826 | 188743 12 | 41:56.44 | 3:37.69 | 188744 | 205087 13 | 45:34.38 | 4:48.14 | 205088 | 226701
Range status and errors
Selected range
Filename C:\darkbrides\Aura Noctis - Vitae Proelium.wav
Peak level 96.6 % Extraction speed 4.2 X Range quality 100.0 % Test CRC 398E0188 Copy CRC 398E0188 Copy OK
No errors occurred
AccurateRip summary
Track 1 accurately ripped (confidence 1) [BC5BC6D8] (AR v2)Track 2 accurately ripped (confidence 1) [A02AFD16] (AR v2)Track 3 accurately ripped (confidence 1) [7F8EEF36] (AR v2)Track 4 accurately ripped (confidence 1) [282DB26E] (AR v2)Track 5 accurately ripped (confidence 1) [5DBC9B3C] (AR v2)Track 6 accurately ripped (confidence 1) [EBBD0486] (AR v2)Track 7 accurately ripped (confidence 1) [6BC4CF7D] (AR v2)Track 8 accurately ripped (confidence 1) [A8A686BD] (AR v2)Track 9 accurately ripped (confidence 1) [64140E26] (AR v2)Track 10 accurately ripped (confidence 1) [A7E1CF52] (AR v2)Track 11 accurately ripped (confidence 1) [136333F4] (AR v2)Track 12 accurately ripped (confidence 1) [125047C1] (AR v2)Track 13 accurately ripped (confidence 1) [4DE18FFB] (AR v2)
All tracks accurately ripped
End of status report
---- CUETools DB Plugin V2.1.6
[CTDB TOCID: 7Vr1jPXYOIgo39jreRWtJZ5XXKE-] foundSubmit result: 7Vr1jPXYOIgo39jreRWtJZ5XXKE- has been confirmedTrack | CTDB Status 1 | (1/1) Accurately ripped 2 | (1/1) Accurately ripped 3 | (1/1) Accurately ripped 4 | (1/1) Accurately ripped 5 | (1/1) Accurately ripped 6 | (1/1) Accurately ripped 7 | (1/1) Accurately ripped 8 | (1/1) Accurately ripped 9 | (1/1) Accurately ripped 10 | (1/1) Accurately ripped 11 | (1/1) Accurately ripped 12 | (1/1) Accurately ripped 13 | (1/1) Accurately ripped
==== Log checksum 75C42B70D15F9168342A705EECDFA05B533B664029D4A74C1D9FC7D66EF74DA4 ====
-


[galltoto.com]_t_5654820.torrent
Торрент: Зарегистрирован ·  [ 2018-12-06 18:49 ] ·  4bd13a91107bec011858f32b932430b66f4fbdb4

13 KB

Статус: проверено
Скачан: 0 раз
Размер: 304 MB
Оценка: 
(Голосов: 0)
Сказали спасибо: 0  Спасибо
Похожие темы
[Профиль]    [ЛС]
Показать сообщения:    
Ответить на тему

Текущее время: Сегодня 11:59

Часовой пояс: GMT + 7



Вы не можете начинать темы
Вы не можете отвечать на сообщения
Вы не можете редактировать свои сообщения
Вы не можете удалять свои сообщения
Вы не можете голосовать в опросах
Вы не можете прикреплять файлы к сообщениям
Вы можете скачивать файлы


HD 720P 2018 6,7 Gangsta | Register / Sign In | Certified Organic Matcha Green Tea Powder Match Herb Herbs Herbal