(Dark Folk / Medieval / Ethereal / Neoclassical) [CD] Trobar de Morte - Ouroboros - 2016, FLAC (tracks+.cue), lossless

Ответить на тему
Статистика раздачи [Обновить пиров]
Размер:  318 MB   |    Зарегистрирован:  1 месяц 23 дня   |    Скачан:  0 раз

Полного источника не было: Никогда

 
   
 
 
 
Автор Сообщение

galltoto.com

Создавать темы 29-Ноя-2018 02:12

[Цитировать]

Trobar de Morte / Ouroboros
Жанр: Dark Folk / Medieval / Ethereal / Neoclassical
Носитель: CD
Страна-производитель диска (релиза): Europe
Год издания: 2016
Издатель (лейбл): Not On Label ‎
Страна исполнителя (группы): Spain
Аудиокодек: FLAC (*.flac)
Тип рипа: tracks+.cue
Битрейт аудио: lossless
Продолжительность: 50:29
Источник (релизер): redacted/bandcamp
Наличие сканов в содержимом раздачи: нет
Треклист:
01 - Summoning the Gods
02 - Idunn
03 - The Wolf
04 - Yggdrasil
05 - While the Field is Green
06 - Vision Dream
07 - The Mystic Path
08 - In Laudem Bacchi
09 - Destiny
10 - The Voice of the Eternity
11 - Ouroboros
12 - The Serpent
13 - Völuspá- The Begining and the End of the World

Лог создания рипа

Exact Audio Copy V1.3 from 2. September 2016
EAC extraction logfile from 14. January 2018, 11:31
Trobar de Morte / Ouroboros
Used drive : ATAPI iHAS124 C Adapter: 1 ID: 0
Read mode : SecureUtilize accurate stream : YesDefeat audio cache : YesMake use of C2 pointers : No
Read offset correction : 6Overread into Lead-In and Lead-Out : NoFill up missing offset samples with silence : YesDelete leading and trailing silent blocks : NoNull samples used in CRC calculations : YesUsed interface : Native Win32 interface for Win NT & 2000Gap handling : Appended to previous track
Used output format : User Defined EncoderSelected bitrate : 1024 kBit/sQuality : HighAdd ID3 tag : NoCommand line compressor : C:\Program Files (x86)\Exact Audio Copy\Flac\flac.exeAdditional command line options : -8 -V -T "ARTIST=%artist%" -T "TITLE=%title%" -T "ALBUM=%albumtitle%" -T "DATE=%year%" -T "TRACKNUMBER=%tracknr%" -T "GENRE=%genre%" -T "PERFORMER=%albuminterpret%" -T "COMPOSER=%composer%" %haslyrics%--tag-from-file=LYRICS="%lyricsfile%"%haslyrics% -T "ALBUMARTIST=%albumartist%" -T "DISCNUMBER=%cdnumber%" -T "TOTALDISCS=%totalcds%" -T "TOTALTRACKS=%numtracks%" -T "COMMENT=%comment%" %source% -o %dest%
TOC of the extracted CD
Track | Start | Length | Start sector | End sector --------------------------------------------------------- 1 | 0:00.00 | 4:17.43 | 0 | 19317 2 | 4:17.43 | 4:37.37 | 19318 | 40129 3 | 8:55.05 | 3:24.47 | 40130 | 55476 4 | 12:19.52 | 4:39.38 | 55477 | 76439 5 | 16:59.15 | 3:16.67 | 76440 | 91206 6 | 20:16.07 | 5:03.57 | 91207 | 113988 7 | 25:19.64 | 4:47.12 | 113989 | 135525 8 | 30:07.01 | 3:23.26 | 135526 | 150776 9 | 33:30.27 | 3:43.59 | 150777 | 167560 10 | 37:14.11 | 1:57.16 | 167561 | 176351 11 | 39:11.27 | 3:28.00 | 176352 | 191951 12 | 42:39.27 | 3:13.55 | 191952 | 206481 13 | 45:53.07 | 4:36.60 | 206482 | 227241
Track 1
Filename H:\ENCODAGE\EAC Rip\01 - Summoning the Gods.wav
Pre-gap length 0:00:02.00
Peak level 96.6 % Extraction speed 1.9 X Track quality 100.0 % Test CRC 55CDBEA0 Copy CRC 55CDBEA0 Accurately ripped (confidence 3) [7E173686] (AR v2) Copy OK
Track 2
Filename H:\ENCODAGE\EAC Rip\02 - Idunn.wav
Pre-gap length 0:00:01.76
Peak level 96.6 % Extraction speed 2.1 X Track quality 100.0 % Test CRC F325DA81 Copy CRC F325DA81 Accurately ripped (confidence 3) [85D40797] (AR v2) Copy OK
Track 3
Filename H:\ENCODAGE\EAC Rip\03 - The Wolf.wav
Pre-gap length 0:00:01.76
Peak level 96.6 % Extraction speed 2.2 X Track quality 100.0 % Test CRC 5A271090 Copy CRC 5A271090 Accurately ripped (confidence 3) [BEE2BD56] (AR v2) Copy OK
Track 4
Filename H:\ENCODAGE\EAC Rip\04 - Yggdrasil.wav
Pre-gap length 0:00:01.76
Peak level 96.6 % Extraction speed 1.9 X Track quality 99.9 % Test CRC 1C91320D Copy CRC 1C91320D Accurately ripped (confidence 3) [14B433B9] (AR v2) Copy OK
Track 5
Filename H:\ENCODAGE\EAC Rip\05 - While the Field is Green.wav
Pre-gap length 0:00:00.01
Peak level 96.6 % Extraction speed 1.7 X Track quality 99.9 % Test CRC CB8AD7CA Copy CRC CB8AD7CA Accurately ripped (confidence 3) [69791843] (AR v2) Copy OK
Track 6
Filename H:\ENCODAGE\EAC Rip\06 - Vision Dream.wav
Pre-gap length 0:00:01.76
Peak level 79.6 % Extraction speed 2.1 X Track quality 99.9 % Test CRC EC1A7D5C Copy CRC EC1A7D5C Accurately ripped (confidence 3) [4003A84C] (AR v2) Copy OK
Track 7
Filename H:\ENCODAGE\EAC Rip\07 - The Mystic Path.wav
Peak level 96.6 % Extraction speed 2.2 X Track quality 99.9 % Test CRC 94F47D61 Copy CRC 94F47D61 Accurately ripped (confidence 3) [82711ED8] (AR v2) Copy OK
Track 8
Filename H:\ENCODAGE\EAC Rip\08 - In Laudem Bacchi.wav
Pre-gap length 0:00:01.76
Peak level 96.6 % Extraction speed 2.9 X Track quality 100.0 % Test CRC E61641C0 Copy CRC E61641C0 Accurately ripped (confidence 3) [B6FE1485] (AR v2) Copy OK
Track 9
Filename H:\ENCODAGE\EAC Rip\09 - Destiny.wav
Pre-gap length 0:00:01.76
Peak level 96.6 % Extraction speed 2.2 X Track quality 99.9 % Test CRC 6156B90F Copy CRC 6156B90F Accurately ripped (confidence 3) [1ECA3D99] (AR v2) Copy OK
Track 10
Filename H:\ENCODAGE\EAC Rip\10 - The Voice of the Eternity.wav
Pre-gap length 0:00:01.76
Peak level 90.1 % Extraction speed 1.6 X Track quality 99.9 % Test CRC B289F7FD Copy CRC B289F7FD Accurately ripped (confidence 3) [A80B650E] (AR v2) Copy OK
Track 11
Filename H:\ENCODAGE\EAC Rip\11 - Ouroboros.wav
Pre-gap length 0:00:00.01
Peak level 96.6 % Extraction speed 3.2 X Track quality 100.0 % Test CRC E8B6C91E Copy CRC E8B6C91E Accurately ripped (confidence 3) [E722BD76] (AR v2) Copy OK
Track 12
Filename H:\ENCODAGE\EAC Rip\12 - The Serpent.wav
Pre-gap length 0:00:01.76
Peak level 96.6 % Extraction speed 3.3 X Track quality 100.0 % Test CRC BA12FEEE Copy CRC BA12FEEE Accurately ripped (confidence 3) [03311187] (AR v2) Copy OK
Track 13
Filename H:\ENCODAGE\EAC Rip\13 - Völuspá- The Begining and the End of the World.wav
Pre-gap length 0:00:01.76
Peak level 96.6 % Extraction speed 3.6 X Track quality 100.0 % Test CRC 86DC67A9 Copy CRC 86DC67A9 Accurately ripped (confidence 3) [DAE9D128] (AR v2) Copy OK
All tracks accurately ripped
No errors occurred
End of status report
---- CUETools DB Plugin V2.1.6
[CTDB TOCID: RRXrPCPVxXKpe_XVDdZrBtgAo5I-] foundSubmit result: already submittedTrack | CTDB Status 1 | (7/7) Accurately ripped 2 | (7/7) Accurately ripped 3 | (7/7) Accurately ripped 4 | (7/7) Accurately ripped 5 | (7/7) Accurately ripped 6 | (7/7) Accurately ripped 7 | (7/7) Accurately ripped 8 | (7/7) Accurately ripped 9 | (7/7) Accurately ripped 10 | (7/7) Accurately ripped 11 | (7/7) Accurately ripped 12 | (7/7) Accurately ripped 13 | (7/7) Accurately ripped
==== Log checksum D50B9C434DE196A8DB717400991368B3034CA30740CA7676DFEA9915CA4BD2C4 ====

Содержание индексной карты (.CUE)

REM GENRE FolkREM DATE 2016REM DISCID 980BD50DREM COMMENT "ExactAudioCopy v1.3"PERFORMER "Trobar de Morte"TITLE "Ouroboros"REM COMPOSER ""FILE "01 - Summoning the Gods.wav" WAVE TRACK 01 AUDIO TITLE "Summoning the Gods" PERFORMER "Trobar de Morte" REM COMPOSER "" INDEX 01 00:00:00 TRACK 02 AUDIO TITLE "Idunn" PERFORMER "Trobar de Morte" REM COMPOSER "" INDEX 00 04:15:61FILE "02 - Idunn.wav" WAVE INDEX 01 00:00:00 TRACK 03 AUDIO TITLE "The Wolf" PERFORMER "Trobar de Morte" REM COMPOSER "" INDEX 00 04:35:55FILE "03 - The Wolf.wav" WAVE INDEX 01 00:00:00 TRACK 04 AUDIO TITLE "Yggdrasil" PERFORMER "Trobar de Morte" REM COMPOSER "" INDEX 00 03:22:65FILE "04 - Yggdrasil.wav" WAVE INDEX 01 00:00:00 TRACK 05 AUDIO TITLE "While the Field is Green" PERFORMER "Trobar de Morte" REM COMPOSER "" INDEX 00 04:39:37FILE "05 - While the Field is Green.wav" WAVE INDEX 01 00:00:00 TRACK 06 AUDIO TITLE "Vision Dream" PERFORMER "Trobar de Morte" REM COMPOSER "" INDEX 00 03:15:10FILE "06 - Vision Dream.wav" WAVE INDEX 01 00:00:00FILE "07 - The Mystic Path.wav" WAVE TRACK 07 AUDIO TITLE "The Mystic Path" PERFORMER "Trobar de Morte" REM COMPOSER "" INDEX 01 00:00:00 TRACK 08 AUDIO TITLE "In Laudem Bacchi" PERFORMER "Trobar de Morte" REM COMPOSER "" INDEX 00 04:45:30FILE "08 - In Laudem Bacchi.wav" WAVE INDEX 01 00:00:00 TRACK 09 AUDIO TITLE "Destiny" PERFORMER "Trobar de Morte" REM COMPOSER "" INDEX 00 03:21:44FILE "09 - Destiny.wav" WAVE INDEX 01 00:00:00 TRACK 10 AUDIO TITLE "The Voice of the Eternity" PERFORMER "Trobar de Morte" REM COMPOSER "" INDEX 00 03:42:02FILE "10 - The Voice of the Eternity.wav" WAVE INDEX 01 00:00:00 TRACK 11 AUDIO TITLE "Ouroboros" PERFORMER "Trobar de Morte" REM COMPOSER "" INDEX 00 01:57:15FILE "11 - Ouroboros.wav" WAVE INDEX 01 00:00:00 TRACK 12 AUDIO TITLE "The Serpent" PERFORMER "Trobar de Morte" REM COMPOSER "" INDEX 00 03:26:18FILE "12 - The Serpent.wav" WAVE INDEX 01 00:00:00 TRACK 13 AUDIO TITLE "Vцluspб: The Begining and the End of the World" PERFORMER "Trobar de Morte" REM COMPOSER "" INDEX 00 03:11:73FILE "13 - Völuspá- The Begining and the End of the World.wav" WAVE INDEX 01 00:00:00

Лог проверки качества

-----------------------
DON'T MODIFY THIS FILE
-----------------------
PERFORMER: auCDtect Task Manager, ver. 1.6.0 RC1 build 1.6.0.1Copyright (c) 2008-2010 y-soft. All rights reservedhttp://y-soft.org
ANALYZER: auCDtect: CD records authenticity detector, version 0.8.2Copyright (c) 2004 Oleg Berngardt. All rights reserved.Copyright (c) 2004 Alexander Djourik. All rights reserved.
FILE: 13 - Völuspá- The Begining and the End of the World.flac Size: 26332548 Hash: B0A4161F0A7BF7FD96DA23FF8F62F83E Accuracy: -m0 Conclusion: CDDA 99% Signature: 16B989D1C4355D2F880F47362638DF9D0993D8BFFILE: 12 - The Serpent.flac Size: 23069757 Hash: 7E47B2742142F08719107F37D2201D65 Accuracy: -m0 Conclusion: CDDA 100% Signature: 550CC8563AF66C95B1C21B65CBAA70BA7054B9B4FILE: 11 - Ouroboros.flac Size: 21040641 Hash: 495D1EF6E2903F7A9A9A90AA1FCD70A1 Accuracy: -m0 Conclusion: CDDA 99% Signature: 36471E5C0CB6713FD40396CE48DA1CBF671A1EBEFILE: 10 - The Voice of the Eternity.flac Size: 11108604 Hash: C0C9ABA0AB441548E339D62DAFB38A77 Accuracy: -m0 Conclusion: CDDA 43% Signature: 9F8BC82805925927D00E794599FFFAFD985A4406FILE: 09 - Destiny.flac Size: 26197087 Hash: 4D93FC286477649F391783F0798FF167 Accuracy: -m0 Conclusion: CDDA 100% Signature: 3F7B7D5E0BBEE520FDC855F67360021051E7E0CBFILE: 08 - In Laudem Bacchi.flac Size: 25512008 Hash: 9BBFFE957B2FB35074862C5E911CFBE9 Accuracy: -m0 Conclusion: CDDA 100% Signature: F92768182FFAD78F51B3BF949EE452D31C6DE005FILE: 07 - The Mystic Path.flac Size: 31893839 Hash: 792ECE82E17233C13CC23E7B651C8503 Accuracy: -m0 Conclusion: CDDA 100% Signature: 9F29FDBF12A6F4A09F0CD1B8D4233BD3872E3A6CFILE: 06 - Vision Dream.flac Size: 34531168 Hash: 5943BEA26DC31234B39D267144FB05C2 Accuracy: -m0 Conclusion: CDDA 100% Signature: 9B4BD72709B702243FC19C6DD11701A70ABC00F8FILE: 05 - While the Field is Green.flac Size: 20933686 Hash: 9D50B532D96CF9205A3B1E524D97913E Accuracy: -m0 Conclusion: CDDA 100% Signature: 4CDE3B9368A235955454C3D5D0B980B12D22A5DEFILE: 04 - Yggdrasil.flac Size: 32240282 Hash: 30D023935355C9084D6F7A5C652082DC Accuracy: -m0 Conclusion: CDDA 100% Signature: D47512EBD0196A025BD080D765E5FAE3398421B6FILE: 03 - The Wolf.flac Size: 23239187 Hash: 045B053BB50B477CB4F66A10A1598708 Accuracy: -m0 Conclusion: CDDA 100% Signature: EFBAD4FF432F893FFF2C612DC76BD811977DD68CFILE: 02 - Idunn.flac Size: 29790564 Hash: 382F493AC435ABBABA6CDD1CD92A8C5D Accuracy: -m0 Conclusion: CDDA 100% Signature: 131C847B059CDC8B5AA76F4E842712C03DDE3094FILE: 01 - Summoning the Gods.flac Size: 27580611 Hash: A97F161E679B96EE44EE40E4D553C359 Accuracy: -m0 Conclusion: CDDA 99% Signature: 0996B2A4389B7E078C5882F1686A75E2166901FB


[galltoto.com]_t_5645759.torrent
Торрент: Зарегистрирован ·  [ 2018-11-29 02:11 ] ·  52a6ac3ec898670aa7937a0b7649835d52108c66

14 KB

Статус: проверено
Скачан: 0 раз
Размер: 318 MB
Оценка: 
(Голосов: 0)
Сказали спасибо: 0  Спасибо
Похожие темы
[Профиль]    [ЛС]
Показать сообщения:    
Ответить на тему

Текущее время: Сегодня 12:09

Часовой пояс: GMT + 7



Вы не можете начинать темы
Вы не можете отвечать на сообщения
Вы не можете редактировать свои сообщения
Вы не можете удалять свои сообщения
Вы не можете голосовать в опросах
Вы не можете прикреплять файлы к сообщениям
Вы можете скачивать файлы


Joe's Revenge season 11 episode 05 | 1x12 Te Recuerdo | Science/Medicine