(Tribal Folk, World, Dub, Downtempo) [WEB] Theodor Bastard - Oikoumene, [Theo Records: Theo 003], 2012, FLAC (tracks), lossless

Ответить на тему
Статистика раздачи [Обновить пиров]
Размер:  461 MB   |    Зарегистрирован:  2 месяца 7 дней   |    Скачан:  0 раз

Полного источника не было: Никогда

 
   
 
 
 
Автор Сообщение

galltoto.com

Создавать темы 14-Ноя-2018 22:04

[Цитировать]

Theodor Bastard — Oikoumene (2012, Theo Records)- Жанр: Electronic, Folk
Стиль: Tribal Folk, World, Dub, Downtempo
Формат файла: WEB
Год издания: 2012
Издатель (лейбл): Theo Records
Номер по каталогу: Theo 003
Страна исполнителя (группы): [img]http://archive.org/download/flags_201712/russia.png[/img] Russia
Аудиокодек: FLAC (*.flac)
Тип рипа: tracks
Продолжительность: 01:04:10
Источник: bandcamp, собственное приобретение
Наличие сканов в содержимом раздачи: только обложка
-Треклист:
01. Theodor Bastard - Takaya Mija [05:36]
02. Theodor Bastard - Farias [05:26]
03. Theodor Bastard - Gerda [05:59]
04. Theodor Bastard - Benga [04:44]
05. Theodor Bastard feat. Julien Jacob - Sagrabat (Diumgo) [03:34]
06. Theodor Bastard - Oikoumene [07:41]
07. Theodor Bastard - Tapachula [07:09]
08. Theodor Bastard - Intifadah [05:13]
09. Theodor Bastard - Clean Kron [03:25]
10. Theodor Bastard - Sol De Morte [03:44]
11. Theodor Bastard - Anubis [04:57]
12. Theodor Bastard - Benga (Fun-Da-Mental version) [06:42]-Полезные ссылки:
  • [img]http://archive.org/download/music_icons/musicbrain...img]MusicBrainz: Theodor Bastard — Oikoumene
  • [img]http://archive.org/download/music_icons/bandcamp_1...g[/img]Bandcamp: Theodor Bastard — Oikoumene-В раздаче присутствуют бонусы, идущие вместе с альбомом на Bandcamp: текст пресс-релиза, несколько фотографий группы и фрагмент видеозаписи репетиции 2012 года.-

    Лог проверки качества

    -----------------------
    DON'T MODIFY THIS FILE
    -----------------------
    PERFORMER: auCDtect Task Manager, ver. 1.6.0 RC1 build 1.6.0.1Copyright (c) 2008-2010 y-soft. All rights reservedhttp://y-soft.org
    ANALYZER: auCDtect: CD records authenticity detector, version 0.8.2Copyright (c) 2004 Oleg Berngardt. All rights reserved.Copyright (c) 2004 Alexander Djourik. All rights reserved.
    FILE: 12. Benga (Fun-Da-Mental version).flac Size: 46399605 Hash: 9F6E979E67D79B0378CD8DD43FCF9BF4 Accuracy: -m0 Conclusion: CDDA 100% Signature: FEE66EABE7ACCF6F2B294D5155DCA7F15C410AF4FILE: 11. Anubis.flac Size: 33476163 Hash: 90D631AD71786BEA92DEDF37E750067B Accuracy: -m0 Conclusion: CDDA 100% Signature: A6DBB1CA1374DD2C16E656636AF87DBA68BA7198FILE: 10. Sol De Morte.flac Size: 21675117 Hash: 93681ABCF7647D144985DC81E69CDFCE Accuracy: -m0 Conclusion: CDDA 100% Signature: 2F3A2AEE8515B8C88FF01F36568CA424170C3E7EFILE: 09. Clean Kron.flac Size: 19255407 Hash: 6344B9A03A537F31AD76090B5DA6AA42 Accuracy: -m0 Conclusion: CDDA 100% Signature: 404F080138CA1466A66CD715FB6B4E87B21B5E0AFILE: 08. Intifadah.flac Size: 35762360 Hash: 7C843435218E6192E4E91BAF86C205C7 Accuracy: -m0 Conclusion: CDDA 99% Signature: A9875F794D4D7E311D1218D716D40280E726E931FILE: 07. Tapachula.flac Size: 45903252 Hash: 0EB4E589FE212F56FB9D4592BA0204F5 Accuracy: -m0 Conclusion: CDDA 100% Signature: D777A3F83918A65EB9D97BF50556D442C0DAC9C8FILE: 06. Oikoumene.flac Size: 49760629 Hash: EDC3701326B5E33A35678A1C66943759 Accuracy: -m0 Conclusion: CDDA 100% Signature: AB9F6B4CA3D8E01410FAC257E4BD09B48AA5D081FILE: 05. Sagrabat (Diumgo) (feat. Julien Jacob).flac Size: 20758154 Hash: 2A2F8E89A9FEA57B8C58A8856A1AC0E8 Accuracy: -m0 Conclusion: CDDA 99% Signature: 9A0E9AA7188D108B7338178E2C052434FB350653FILE: 04. Benga.flac Size: 28318400 Hash: 4CCFBDB904D0C5CDA277247CE2701F55 Accuracy: -m0 Conclusion: CDDA 100% Signature: F589A60F363A166D8C12C3C8FAA7D78BFF5B245FFILE: 03. Gerda.flac Size: 41919123 Hash: 8C87C600A03B9BA4A27DE0B0D41E190F Accuracy: -m0 Conclusion: CDDA 99% Signature: B0865A81173D7B93048D0506A649F321E197F016FILE: 02. Farias.flac Size: 36787191 Hash: 63182CD694963F31AD3D060ECAA1E19B Accuracy: -m0 Conclusion: CDDA 100% Signature: E067BDBDEE90CE4664960478C0CE1E6209A8C4D2FILE: 01. Takaya Mija.flac Size: 36891102 Hash: E67B8AFD2333F4C69C54B116FB657E4B Accuracy: -m0 Conclusion: CDDA 100% Signature: 73DA796A06A56169090468388CD160D0544F9423

    Замер динамического диапазона (DRM)

    foobar2000 1.3.17 / Dynamic Range Meter 1.1.1log date: 2018-11-07 10:54:56
    --------------------------------------------------------------------------------Analyzed: Theodor Bastard feat. Julien Jacob / Oikoumene (1) Theodor Bastard / Oikoumene (2-12)--------------------------------------------------------------------------------
    DR Peak RMS Duration Track--------------------------------------------------------------------------------DR14 -0.10 dB -17.18 dB 3:35 05-Sagrabat (Diumgo)DR10 -0.17 dB -12.76 dB 5:36 01-Takaya MijaDR9 -0.14 dB -11.91 dB 5:26 02-FariasDR9 -0.09 dB -11.71 dB 5:59 03-GerdaDR10 -0.22 dB -12.22 dB 4:45 04-BengaDR9 -0.11 dB -11.44 dB 7:42 06-OikoumeneDR10 -0.12 dB -12.70 dB 7:09 07-TapachulaDR9 -0.07 dB -11.51 dB 5:13 08-IntifadahDR11 -0.12 dB -13.82 dB 3:26 09-Clean KronDR11 -0.19 dB -15.35 dB 3:45 10-Sol De MorteDR8 -0.07 dB -10.84 dB 4:57 11-AnubisDR11 -0.14 dB -12.92 dB 6:43 12-Benga (Fun-Da-Mental version)--------------------------------------------------------------------------------
    Number of tracks: 12Official DR value: DR10
    Samplerate: 44100 HzChannels: 2Bits per sample: 16Bitrate: 905 kbpsCodec: FLAC================================================================================


    [galltoto.com]_t_5640716.torrent
    Торрент: Зарегистрирован ·  [ 2018-11-14 22:01 ] ·  66b97ab83a92d782e3515275f0cd7af34a1a5f40

    19 KB

    Статус: проверено
    Скачан: 0 раз
    Размер: 461 MB
    Оценка: 
    (Голосов: 0)
    Сказали спасибо: 0  Спасибо
    Похожие темы
  • [Профиль]    [ЛС]
    Показать сообщения:    
    Ответить на тему

    Текущее время: Сегодня 11:24

    Часовой пояс: GMT + 7



    Вы не можете начинать темы
    Вы не можете отвечать на сообщения
    Вы не можете редактировать свои сообщения
    Вы не можете удалять свои сообщения
    Вы не можете голосовать в опросах
    Вы не можете прикреплять файлы к сообщениям
    Вы можете скачивать файлы


    The 11th Hour with Brian Williams 2019 01 11 1080p WEBRip x265 HEVC-LM | Tom Clancy’s Jack Ryan | Bohemian Rhapsod...