(NDT, darkwave) [CD] Sinnflut - Epik - 2008, FLAC (image+.cue), lossless

Ответить на тему
Статистика раздачи [Обновить пиров]
Размер:  365 MB   |    Зарегистрирован:  2 месяца 7 дней   |    Скачан:  0 раз

Полного источника не было: Никогда

 
   
 
 
 
Автор Сообщение

galltoto.com

Создавать темы 14-Ноя-2018 22:04

[Цитировать]

Sinnflut - 2008 - Epik
-
Жанр: NDT, darkwave
Носитель: CD
Страна-производитель диска (релиза): Germany
Год издания: 2008
Издатель (лейбл): Ontogenesis Publishing
Номер по каталогу: OGS/Nr. 008
Страна исполнителя (группы): Germany
Аудиокодек: FLAC (*.flac)
Тип рипа: image+.cue
Битрейт аудио: lossless
Продолжительность: 1:00:16
Источник (релизер): cosmogonia
Наличие сканов в содержимом раздачи: да
-
Треклист:
1 Intro ....................................1:10
2 Eine Last Voll Glück.................9:05
3 Wenn Es Leise Wird.................5:54
4 Mir Ist Das Bild.......................8:45
5 Sie Atmet Nicht Einmal............10:30
6 Wortkarg................................6:49
7 Wie Ein Gewittern....................10:52
8 Spielgelverkehrt......................7:09

Лог создания рипа

Exact Audio Copy V1.3 from 2. September 2016
Отчёт EAC об извлечении, выполненном 9. ноября 2018, 19:25
Sinnflut / Epik
Дисковод: DVD RW Adapter: 1 ID: 0
Режим чтения : ДостоверностьИспользование точного потока : ДаОтключение кэша аудио : ДаИспользование указателей C2 : Нет
Коррекция смещения при чтении : 6Способность читать области Lead-in и Lead-out : НетЗаполнение пропущенных сэмплов тишиной : ДаУдаление блоков с тишиной в начале и конце : НетПри вычислениях CRC использовались нулевые сэмплы : ДаИнтерфейс : Встроенный Win32-интерфейс для Win NT/2000
Выходной формат : Пользовательский кодировщикВыбранный битрейт : 1024 kBit/sКачество : ВысокийДобавление ID3-тега : НетУтилита сжатия : C:\Program Files (x86)\Exact Audio Copy\FLAC\FLAC.EXEДополнительные параметры : -V -8 -T "Date=%year%" -T "Genre=%genre%" %source%
TOC извлечённого CD
Трек | Старт | Длительность | Начальный сектор | Конечный сектор --------------------------------------------------------------------- 1 | 0:00.00 | 1:10.25 | 0 | 5274 2 | 1:10.25 | 9:05.17 | 5275 | 46166 3 | 10:15.42 | 5:54.20 | 46167 | 72736 4 | 16:09.62 | 8:45.10 | 72737 | 112121 5 | 24:54.72 | 10:30.33 | 112122 | 159404 6 | 35:25.30 | 6:48.73 | 159405 | 190077 7 | 42:14.28 | 10:52.69 | 190078 | 239046 8 | 53:07.22 | 7:09.19 | 239047 | 271240
Характеристики диапазона извлечения и сообщения об ошибках
Выбранный диапазон
Имя файла C:\Users\zigota\Desktop\Sinnflut - Epik.wav
Пиковый уровень 100.0 % Скорость извлечения 4.6 X Качество диапазона 100.0 % CRC теста 17CD41CF CRC копии 17CD41CF Копирование... OK
Ошибок не произошло
Конец отчёта
==== Контрольная сумма отчёта D6CC1402AEE703056789EC494C546DA9800F3F7F774A81460D2037363DDCBB4F ====

Содержание индексной карты (.CUE)

REM GENRE DarkwaveREM DATE 2008REM DISCID 6F0E2008REM COMMENT "ExactAudioCopy v1.3"PERFORMER "Sinnflut"TITLE "Epik"REM COMPOSER "Sinnflut"FILE "Sinnflut - 2008 - Epik.flac" WAVE TRACK 01 AUDIO TITLE "Intro" PERFORMER "Sinnflut" REM COMPOSER "Sinnflut" INDEX 01 00:00:00 TRACK 02 AUDIO TITLE "Eine Last voll Glьck" PERFORMER "Sinnflut" REM COMPOSER "Sinnflut" INDEX 01 01:10:25 TRACK 03 AUDIO TITLE "Wenn es leise wird" PERFORMER "Sinnflut" REM COMPOSER "Sinnflut" INDEX 01 10:15:42 TRACK 04 AUDIO TITLE "Mir ist das Bild" PERFORMER "Sinnflut" REM COMPOSER "Sinnflut" INDEX 01 16:09:62 TRACK 05 AUDIO TITLE "Sie atmet nicht einmal" PERFORMER "Sinnflut" REM COMPOSER "Sinnflut" INDEX 01 24:54:72 TRACK 06 AUDIO TITLE "Wortkarg" PERFORMER "Sinnflut" REM COMPOSER "Sinnflut" INDEX 01 35:25:30 TRACK 07 AUDIO TITLE "Wie ein Gewittern" PERFORMER "Sinnflut" REM COMPOSER "Sinnflut" INDEX 01 42:14:28 TRACK 08 AUDIO TITLE "Spiegelverkehrt" PERFORMER "Sinnflut" REM COMPOSER "Sinnflut" INDEX 01 53:07:22


[galltoto.com]_t_5641789.torrent
Торрент: Зарегистрирован ·  [ 2018-11-14 22:01 ] ·  9a0b7c869eea3ee62278f955285faa3b90b397ab

15 KB

Статус: проверено
Скачан: 0 раз
Размер: 365 MB
Оценка: 
(Голосов: 0)
Сказали спасибо: 0  Спасибо
Похожие темы
[Профиль]    [ЛС]
Показать сообщения:    
Ответить на тему

Текущее время: Сегодня 12:14

Часовой пояс: GMT + 7



Вы не можете начинать темы
Вы не можете отвечать на сообщения
Вы не можете редактировать свои сообщения
Вы не можете удалять свои сообщения
Вы не можете голосовать в опросах
Вы не можете прикреплять файлы к сообщениям
Вы можете скачивать файлы


D.Gray-Man | Testine Ricambio Compatibili Oral B Spazzolino Elettrico Testina Modelli Vari | Logan Blu-Ray Nuevo Y Precintado 2 Discos Version Cinematografica Y Noir