(Psychill | Psybient) [WEB] Hedflux & Alex Delfont - Kin - 2018, FLAC (tracks), lossless

Ответить на тему
Статистика раздачи [Обновить пиров]
Размер:  369 MB   |    Зарегистрирован:  2 месяца 24 дня   |    Скачан:  0 раз

Полного источника не было: Никогда

 
   
 
 
 
Автор Сообщение

galltoto.com

Создавать темы 23-Окт-2018 19:39

[Цитировать]



Hedflux & Alex Delfont

Kin





• Жанр: Psychill | Psybient
• Носитель: WEB
• Год издания: 2018
• Издатель: Luminus Music
• Страна: UK
• Аудиокодек: FLAC (*.flac)
• Тип рипа: tracks
• Продолжительность: 01:05:37
• Источник (спасибо): NT (PsyPixel)
• WEB bandcamp
• Наличие сканов: front

01 - Origins (00:08:08)
02 - Opia (00:05:57)
03 - Manifolds (00:06:10)
04 - Dancing with the Dead (00:06:14)
05 - Terra Nullius (00:07:19)
06 - Hollow Eyes (00:06:44)
07 - Cloud Mountain (00:06:28)
08 - Hocahe (00:05:36)
09 - Solitude (00:06:39)
10 - Far off Fields (00:06:19)

-
-

• Замер динамического диапазона •

foobar2000 1.3.17 / Замер динамического диапазона (DR) 1.1.1Дата отчёта: 2018-10-06 10:35:39
--------------------------------------------------------------------------------Анализ: Hedflux & Alex Delfont / Kin--------------------------------------------------------------------------------
DR Пики RMS Продолжительность трека--------------------------------------------------------------------------------DR8 -0.10 дБ -9.96 дБ 8:08 01-OriginsDR8 -0.10 дБ -10.23 дБ 5:58 02-OpiaDR8 -0.10 дБ -10.26 дБ 6:10 03-ManifoldsDR7 -0.10 дБ -9.44 дБ 6:14 04-Dancing with the DeadDR7 -0.10 дБ -9.83 дБ 7:19 05-Terra NulliusDR5 -0.10 дБ -7.20 дБ 6:45 06-Hollow EyesDR6 -0.10 дБ -8.67 дБ 6:28 07-Cloud MountainDR9 -0.10 дБ -11.09 дБ 5:36 08-HocaheDR9 -0.10 дБ -12.43 дБ 6:40 09-SolitudeDR6 -0.10 дБ -9.20 дБ 6:19 10-Far off Fields--------------------------------------------------------------------------------
Количество треков: 10Реальные значения DR: DR7
Частота: 44100 ГцКаналов: 2Разрядность: 16Битрейт: 715 кбит/сКодек: FLAC================================================================================
-

• Лог проверки качества •

AUDIOCHECKER v2.0 beta (build 457) - by Dester - opdester@freemail.hu~~~~~~~~~~~~~~~~~~~~~~~~~~~~~~~~~~-=== НЕ РЕДАКТИРУЙТЕ ЭТОТ ФАЙЛ! ===-
Путь: ...\Hedflux & Alex Delfont - Kin (2018) FLAC
01 -=- 01. Origins.flac -=- CDDA (99%)02 -=- 02. Opia.flac -=- CDDA (100%)03 -=- 03. Manifolds.flac -=- CDDA (100%)04 -=- 04. Dancing with the Dead.flac -=- CDDA (100%)05 -=- 05. Terra Nullius.flac -=- CDDA (99%)06 -=- 06. Hollow Eyes.flac -=- CDDA (100%)07 -=- 07. Cloud Mountain.flac -=- CDDA (100%)08 -=- 08. Hocahe.flac -=- CDDA (100%)09 -=- 09. Solitude.flac -=- CDDA (100%)10 -=- 10. Far off Fields.flac -=- CDDA (100%)
Сводка 99,80% CDDA
179829892
-[img]http://i99.fastpic.ru/big/2018/0820/c4/d7d2761493bbbac411f16cce5e5f30c4.png[/img]


[galltoto.com]_t_5624314.torrent
Торрент: Зарегистрирован ·  [ 2018-10-23 19:38 ] ·  793d5e004a2decbc8b23046a6737802890bb6292

15 KB

Статус: проверено
Скачан: 0 раз
Размер: 369 MB
Оценка: 
(Голосов: 0)
Сказали спасибо: 0  Спасибо
Похожие темы
[Профиль]    [ЛС]
Показать сообщения:    
Ответить на тему

Текущее время: Сегодня 01:38

Часовой пояс: GMT + 7



Вы не можете начинать темы
Вы не можете отвечать на сообщения
Вы не можете редактировать свои сообщения
Вы не можете удалять свои сообщения
Вы не можете голосовать в опросах
Вы не можете прикреплять файлы к сообщениям
Вы можете скачивать файлы


Asian/Oriental Antiques | Moina macrocopa (Daphnia like but better) Culture Eggs (Live Food for Fish) | DR 695-97 ** sauber postfrisch, KW 280 €