(Psybient | PsyChill | Ambient) [WEB] Dense - Impact - 2018, FLAC (tracks), lossless

Ответить на тему
Статистика раздачи [Обновить пиров]
Размер:  390 MB   |    Зарегистрирован:  3 месяца 7 дней   |    Скачан:  0 раз

Полного источника не было: Никогда

 
   
 
 
 
Автор Сообщение

galltoto.com

Создавать темы 09-Окт-2018 19:15

[Цитировать]



Dense

Impact





• Жанр: Psybient | PsyChill | Ambient
• Носитель: WEB
• Год издания: 2018
• Издатель: Cosmicleaf Records
• Аудиокодек: FLAC (*.flac)
• Тип рипа: tracks
• Продолжительность: 01:13:05
• Источник (спасибо): (plosha)
• WEB bandcamp
• Наличие сканов: front

01 - Elaras Ambition (00:06:02)
02 - Hover (Remix) (00:08:34)
03 - Feel (00:06:18)
04 - The Look (00:05:23)
05 - Just Fly (00:09:21)
06 - Themisto (00:07:16)
07 - Passing Storm (2018 Live Version) (00:08:12)
08 - Italoy (00:08:50)
09 - Lower Venues (00:05:41)
10 - Chaldene (00:07:24)

-
-

• Замер динамического диапазона •

foobar2000 1.3.9 / Замер динамического диапазона (DR) 1.1.1Дата отчёта: 2018-10-05 10:25:12
--------------------------------------------------------------------------------Анализ: Dense / Impact--------------------------------------------------------------------------------
DR Пики RMS Продолжительность трека--------------------------------------------------------------------------------DR6 -0.98 дБ -9.02 дБ 6:02 01-Elaras AmbitionDR6 -0.25 дБ -8.51 дБ 8:35 02-Hover (Remix)DR7 -0.98 дБ -9.52 дБ 6:19 03-FeelDR5 -0.98 дБ -8.13 дБ 5:24 04-The LookDR5 -0.98 дБ -7.71 дБ 9:22 05-Just FlyDR5 -0.98 дБ -7.42 дБ 7:16 06-ThemistoDR4 -0.98 дБ -7.24 дБ 8:13 07-Passing Storm (2018 Live Version)DR5 -0.98 дБ -6.66 дБ 8:50 08-ItaloyDR5 -0.98 дБ -8.05 дБ 5:42 09-Lower VenuesDR6 -0.98 дБ -9.23 дБ 7:24 10-Chaldene--------------------------------------------------------------------------------
Количество треков: 10Реальные значения DR: DR5
Частота: 44100 ГцКаналов: 2Разрядность: 16Битрейт: 734 кбит/сКодек: FLAC================================================================================
-MPEG 95%

• Лог проверки качества •

-----------------------
DON'T MODIFY THIS FILE
-----------------------
PERFORMER: auCDtect Task Manager, ver. 1.5.1RC3 build 1.5.1.4Copyright (c) 2008-2010 y-soft. All rights reservedhttp://y-soft.org
ANALYZER: auCDtect: CD records authenticity detector, version 0.8.2Copyright (c) 2004 Oleg Berngardt. All rights reserved.Copyright (c) 2004 Alexander Djourik. All rights reserved.
FILE: 10 - Chaldene.flac Size: 40862001 Hash: 4AA18EB89A1EBBC03B7CD2B690452352 Accuracy: -m0 Conclusion: MPEG 95% Signature: 1DA1EFD50222BCC679B0B8A0B3848FA0D1ED9F61FILE: 09 - Lower Venues.flac Size: 29056102 Hash: 4F1573D62EDC2099E49DB1B0FC033DFA Accuracy: -m0 Conclusion: MPEG 95% Signature: F88D5D6C71F3070FF0168448ED2FFA04A2458563FILE: 08 - Italoy.flac Size: 53765068 Hash: 7E396E301112C1C6E4121C96B56F9345 Accuracy: -m0 Conclusion: MPEG 95% Signature: 44CFA620B01FF6B80CF1E2C2F7949644DF1D2749FILE: 07 - Passing Storm (2018 Live Version).flac Size: 48343832 Hash: 4BE27035FF60EC70B4566443E62800D5 Accuracy: -m0 Conclusion: MPEG 95% Signature: B8106733AF16AFCF4A5A570F2714422B827A3C84FILE: 06 - Themisto.flac Size: 34568797 Hash: 39CF5C5D0BF28ED88E7DCAB56AA87BDA Accuracy: -m0 Conclusion: MPEG 95% Signature: 9DE4C0E0B518AAA96F031A3C945111696D5CF55AFILE: 05 - Just Fly.flac Size: 53782333 Hash: C7698F629E67CCE8E06D2DCB2F457C45 Accuracy: -m0 Conclusion: MPEG 95% Signature: DF0191116884EEBF83B0AE5720D8C99A05F6FAE8FILE: 04 - The Look.flac Size: 29301484 Hash: AC992D6883856C5A09F740D5922A1BB4 Accuracy: -m0 Conclusion: MPEG 95% Signature: 2F6B2F25EE5C44EDB80D35066DCBEA7C262B8ED2FILE: 03 - Feel.flac Size: 35606463 Hash: 5230525C3BD3989889072BA273221697 Accuracy: -m0 Conclusion: MPEG 95% Signature: 88C57EBE7857174ACE03235073B3A13C6248FB3AFILE: 02 - Hover (Remix).flac Size: 50340413 Hash: 0CEB0DBA803EAE60F433B0DCC3B8C30C Accuracy: -m0 Conclusion: CDDA 100% Signature: E14EADBB7750D37EFF1075ECFEC66B1C96458DC2FILE: 01 - Elaras Ambition.flac Size: 32567976 Hash: 40B951853BE9F64AB92C2742AE72DCA3 Accuracy: -m0 Conclusion: MPEG 95% Signature: 5D287D2DF3FDE5E71FE20012057CED3CD7F5F6FD
--


[galltoto.com]_t_5623769.torrent
Торрент: Зарегистрирован ·  [ 2018-10-09 19:14 ] ·  7a7484fa0b44194e1dc4de176e91120ab2f15df7

16 KB

Статус: проверено
Скачан: 0 раз
Размер: 390 MB
Оценка: 
(Голосов: 0)
Сказали спасибо: 0  Спасибо
Похожие темы
[Профиль]    [ЛС]
Показать сообщения:    
Ответить на тему

Текущее время: Сегодня 01:35

Часовой пояс: GMT + 7



Вы не можете начинать темы
Вы не можете отвечать на сообщения
Вы не можете редактировать свои сообщения
Вы не можете удалять свои сообщения
Вы не можете голосовать в опросах
Вы не можете прикреплять файлы к сообщениям
Вы можете скачивать файлы


Sylvanian Families Family Sets Full Range Choose Your Family Brand New | Dragon Ball – Bảy Viên Ngọc Rồng chap 519 | FLASH ANULAR MACRO MEIKE PARA CANON,NIKON,etc DFC-100 Macrofotografía-FLASH LED