(Ambient) [CD] VA - Psychedelic Chill Out - 2000, FLAC (tracks+.cue), lossless

Ответить на тему
Статистика раздачи [Обновить пиров]
Размер:  487 MB   |    Зарегистрирован:  3 месяца 27 дней   |    Скачан:  0 раз

Полного источника не было: Никогда

 
   
 
 
 
Автор Сообщение

galltoto.com

Создавать темы 19-Сен-2018 19:22

[Цитировать]

Psychedelic Chill Out
Жанр: Ambient
Носитель: CD
Страна-производитель диска (релиза): Ukraine (Unofficial Release)
Год издания: 2000
Издатель (лейбл): Barracuda Records/EMI United Kingdom
Номер по каталогу: BARRAKUDA080004/7243 8
Аудиокодек: FLAC (*.flac)
Тип рипа: tracks+.cue
Битрейт аудио: lossless
Продолжительность: 1:18:34.
Источник (релизер): clustert
Наличие сканов в содержимом раздачи: да (only CD)
Треклист:
01. D.P.O.D. / Midirium [0:09:06.44]
02. Pyxis / Delta Cephei [0:07:39.01]
03. Blake C / South China Sea [0:06:55.14]
04. Chris Zippel / Sleeps In Sand [0:06:56.41]
05. Maka Ketama / Hullun Mylly [0:07:56.62]
06. Shiva Chandra / Future M.B.ent [0:06:42.12]
07. Grey Area / Magnetosphere [0:05:42.55]
08. Spirallianz / The Re-Entry [0:07:43.67]
09. Deep / Smokers Delight [0:05:58.20]
10. Electric Universe / Almenora 12 [0:07:35.35]
11. Ju Ju Space Jazz / Undercover Mystic [0:06:18.22]

Лог создания рипа

Exact Audio Copy V1.0 beta 3 from 29. August 2011
Отчёт EAC об извлечении, выполненном 10. сентября 2018, 18:05
VA / Psychedelic Chill Out - 2000
Дисковод: ASUS DRW-1814BLT Adapter: 5 ID: 0
Режим чтения : ДостоверностьИспользование точного потока : ДаОтключение кэша аудио : ДаИспользование указателей C2 : Нет
Коррекция смещения при чтении : 6Способность читать области Lead-in и Lead-out : НетЗаполнение пропущенных сэмплов тишиной : ДаУдаление блоков с тишиной в начале и конце : НетПри вычислениях CRC использовались нулевые сэмплы : ДаИнтерфейс : Встроенный Win32-интерфейс для Win NT/2000Обработка зазоров : Добавлено к предыдущему треку
Выходной формат : Пользовательский кодировщикВыбранный битрейт : 128 kBit/sКачество : ВысокийДобавление ID3-тега : НетУтилита сжатия : C:\Program Files\Exact Audio Copy\Flac\flac.exeДополнительные параметры : -V -8 -T "Genre=%genre%" -T "Artist=%artist%" -T "Title=%title%" -T "Album=%albumtitle%" -T "Date=%year%" -T "Tracknumber=%tracknr%" -T "Comment=EAC1.0b2 FLAC -8" %source%
TOC извлечённого CD
Трек | Старт | Длительность | Начальный сектор | Конечный сектор --------------------------------------------------------------------- 1 | 0:00.00 | 9:06.44 | 0 | 40993 2 | 9:06.44 | 7:39.01 | 40994 | 75419 3 | 16:45.45 | 6:55.14 | 75420 | 106558 4 | 23:40.59 | 6:56.41 | 106559 | 137799 5 | 30:37.25 | 7:56.62 | 137800 | 173561 6 | 38:34.12 | 6:42.12 | 173562 | 203723 7 | 45:16.24 | 5:42.55 | 203724 | 229428 8 | 50:59.04 | 7:43.67 | 229429 | 264220 9 | 58:42.71 | 5:58.20 | 264221 | 291090 10 | 64:41.16 | 7:35.35 | 291091 | 325250 11 | 72:16.51 | 6:18.22 | 325251 | 353622
Трек 1
Имя файла R:\Раздача 78\VA - Psychedelic Chill Out - 2000\01 Midirium .wav
Длина предзазора 0:00:02.00
Пиковый уровень 79.4 % Скорость извлечения 5.5 X Качество трека 100.0 % CRC теста FDE45E8B CRC копии FDE45E8B Трек не обнаружен в базе AccurateRip Копирование... OK
Трек 2
Имя файла R:\Раздача 78\VA - Psychedelic Chill Out - 2000\02 Delta Cephei .wav
Пиковый уровень 96.6 % Скорость извлечения 6.3 X Качество трека 100.0 % CRC теста 6C107A0A CRC копии 6C107A0A Трек не обнаружен в базе AccurateRip Копирование... OK
Трек 3
Имя файла R:\Раздача 78\VA - Psychedelic Chill Out - 2000\03 South China Sea .wav
Пиковый уровень 99.4 % Скорость извлечения 6.9 X Качество трека 100.0 % CRC теста EB7326A4 CRC копии EB7326A4 Трек не обнаружен в базе AccurateRip Копирование... OK
Трек 4
Имя файла R:\Раздача 78\VA - Psychedelic Chill Out - 2000\04 Sleeps In Sand .wav
Пиковый уровень 97.3 % Скорость извлечения 7.5 X Качество трека 100.0 % CRC теста 21CC9A4D CRC копии 21CC9A4D Трек не обнаружен в базе AccurateRip Копирование... OK
Трек 5
Имя файла R:\Раздача 78\VA - Psychedelic Chill Out - 2000\05 Hullun Mylly .wav
Пиковый уровень 98.8 % Скорость извлечения 8.1 X Качество трека 100.0 % CRC теста 20FD801B CRC копии 20FD801B Трек не обнаружен в базе AccurateRip Копирование... OK
Трек 6
Имя файла R:\Раздача 78\VA - Psychedelic Chill Out - 2000\06 Future M.B.ent .wav
Пиковый уровень 98.8 % Скорость извлечения 8.5 X Качество трека 100.0 % CRC теста 34AE76F9 CRC копии 34AE76F9 Трек не обнаружен в базе AccurateRip Копирование... OK
Трек 7
Имя файла R:\Раздача 78\VA - Psychedelic Chill Out - 2000\07 Magnetosphere .wav
Пиковый уровень 100.0 % Скорость извлечения 8.8 X Качество трека 100.0 % CRC теста A7EFD96E CRC копии A7EFD96E Трек не обнаружен в базе AccurateRip Копирование... OK
Трек 8
Имя файла R:\Раздача 78\VA - Psychedelic Chill Out - 2000\08 The Re-Entry .wav
Пиковый уровень 96.5 % Скорость извлечения 9.4 X Качество трека 100.0 % CRC теста BAF2D606 CRC копии BAF2D606 Трек не обнаружен в базе AccurateRip Копирование... OK
Трек 9
Имя файла R:\Раздача 78\VA - Psychedelic Chill Out - 2000\09 Smokers Delight .wav
Пиковый уровень 100.0 % Скорость извлечения 9.5 X Качество трека 100.0 % CRC теста 02F4406A CRC копии 02F4406A Трек не обнаружен в базе AccurateRip Копирование... OK
Трек 10
Имя файла R:\Раздача 78\VA - Psychedelic Chill Out - 2000\10 Almenora 12 .wav
Пиковый уровень 88.6 % Скорость извлечения 7.7 X Качество трека 99.9 % CRC теста 8D92DF3A CRC копии 8D92DF3A Трек не обнаружен в базе AccurateRip Копирование... OK
Трек 11
Имя файла R:\Раздача 78\VA - Psychedelic Chill Out - 2000\11 Undercover Mystic .wav
Пиковый уровень 99.4 % Скорость извлечения 8.4 X Качество трека 100.0 % CRC теста E1DE6E9F CRC копии E1DE6E9F Трек не обнаружен в базе AccurateRip Копирование... OK
Ни одного трека нет в базе AccurateRip
Ошибок не произошло
Конец отчёта
==== Контрольная сумма отчёта CE6BCB696E68D8444FC6A0197DF3D943455FADCAA5879C43E44458CABA135803 ====

Содержание индексной карты (.CUE)

REM GENRE AmbientREM DATE 2000REM DISCID 97126A0BREM COMMENT "ExactAudioCopy v1.0b3"PERFORMER "VA"TITLE "Psychedelic Chill Out - 2000"FILE "01 Midirium .wav" WAVE TRACK 01 AUDIO TITLE "Midirium" PERFORMER "D.P.O.D." INDEX 01 00:00:00FILE "02 Delta Cephei .wav" WAVE TRACK 02 AUDIO TITLE "Delta Cephei" PERFORMER "Pyxis" INDEX 01 00:00:00FILE "03 South China Sea .wav" WAVE TRACK 03 AUDIO TITLE "South China Sea" PERFORMER "Blake C" INDEX 01 00:00:00FILE "04 Sleeps In Sand .wav" WAVE TRACK 04 AUDIO TITLE "Sleeps In Sand" PERFORMER "Chris Zippel" INDEX 01 00:00:00FILE "05 Hullun Mylly .wav" WAVE TRACK 05 AUDIO TITLE "Hullun Mylly" PERFORMER "Maka Ketama" INDEX 01 00:00:00FILE "06 Future M.B.ent .wav" WAVE TRACK 06 AUDIO TITLE "Future M.B.ent" PERFORMER "Shiva Chandra" INDEX 01 00:00:00FILE "07 Magnetosphere .wav" WAVE TRACK 07 AUDIO TITLE "Magnetosphere" PERFORMER "Grey Area" INDEX 01 00:00:00FILE "08 The Re-Entry .wav" WAVE TRACK 08 AUDIO TITLE "The Re-Entry" PERFORMER "Spirallianz" INDEX 01 00:00:00FILE "09 Smokers Delight .wav" WAVE TRACK 09 AUDIO TITLE "Smokers Delight" PERFORMER "Deep" INDEX 01 00:00:00FILE "10 Almenora 12 .wav" WAVE TRACK 10 AUDIO TITLE "Almenora 12" PERFORMER "Electric Universe" INDEX 01 00:00:00FILE "11 Undercover Mystic .wav" WAVE TRACK 11 AUDIO TITLE "Undercover Mystic" PERFORMER "Ju Ju Space Jazz" INDEX 01 00:00:00


[galltoto.com]_t_5611875.torrent
Торрент: Зарегистрирован ·  [ 2018-09-19 19:22 ] ·  545926f9887c6c721bfdfc8c51882ec2e4b5fc83

21 KB

Статус: проверено
Скачан: 0 раз
Размер: 487 MB
Оценка: 
(Голосов: 0)
Сказали спасибо: 0  Спасибо
Похожие темы
[Профиль]    [ЛС]
Показать сообщения:    
Ответить на тему

Текущее время: Сегодня 01:34

Часовой пояс: GMT + 7



Вы не можете начинать темы
Вы не можете отвечать на сообщения
Вы не можете редактировать свои сообщения
Вы не можете удалять свои сообщения
Вы не можете голосовать в опросах
Вы не можете прикреплять файлы к сообщениям
Вы можете скачивать файлы


Gravel: Colorado River (Milestone S.r.l.) (ENG/MULTi7) [L] - CODEX Подробнее... Залито: 06-06-2018 14:36 (4116 просмотров) Gravel: Colorado River (Milestone S.r.l.) (ENG/MULTi7) [L] - CODEX Горячие новинки Новый эпизод Off-road Masters проходит в обжигающе жаркой аризонской пустыне. Gravel Channel возвращается в США на гонки Wild Rush, трасса для которых проходит по знаменитой дамбе на реке Colorado... Раздают: 0 Качают: 0 Размер: 15.58GB | Read more | Seth Godin