(Psychill | Ambient Dub) [WEB] Spiral Minded - Spectral Splatter - 2018, FLAC (tracks), lossless

Ответить на тему
Статистика раздачи [Обновить пиров]
Размер:  267 MB   |    Зарегистрирован:  3 месяца 27 дней   |    Скачан:  0 раз

Полного источника не было: Никогда

 
   
 
 
 
Автор Сообщение

galltoto.com

Создавать темы 19-Сен-2018 19:22

[Цитировать]



Spiral Minded

Spectral Splatter




• Жанр: Psychill | Ambient Dub
• Носитель: WEB
• Год издания: 2018
• Издатель Mindspring Music
• Номер по каталогу: MSM058
• Страна-производитель релиза: USA, Dallas, Texas
• Аудиокодек: FLAC (*.flac)
• Тип рипа: tracks
• Продолжительность: 00:41:03
• Источник (релизер):NTDMMANIAC ®
• WEB bandcamp
• Наличие сканов: front

01 - Quantum Carnival (00:06:45)
02 - Squarewolf (00:05:37)
03 - Prismatic Tesseract (00:07:40)
04 - Quantum Carnival (Sapien Re-Dub) (00:05:15)
05 - Squarewolf (Klaada Remix) (00:08:39)
06 - Prismatic Tesseract (TRS Remix) (00:07:04)
-

• Замер динамического диапазона •

foobar2000 1.2.5 / Замер динамического диапазона (DR) 1.1.1
Дата отчёта: 2018-09-08 22:14:04
--------------------------------------------------------------------------------
Анализ: Spiral Minded / Spectral Splatter
--------------------------------------------------------------------------------
DR Пики RMS Продолжительность трека
--------------------------------------------------------------------------------
DR4 0.00 дБ -5.68 дБ 6:45 01-Quantum Carnival
DR6 0.00 дБ -8.71 дБ 5:37 02-Squarewolf
DR6 0.00 дБ -9.13 дБ 7:40 03-Prismatic Tesseract
DR10 0.00 дБ -12.71 дБ 5:15 04-Quantum Carnival (Sapien Re-Dub)
DR8 0.00 дБ -9.97 дБ 8:40 05-Squarewolf (Klaada Remix)
DR10 0.00 дБ -11.93 дБ 7:05 06-Prismatic Tesseract (TRS Remix)
--------------------------------------------------------------------------------
Количество треков: 6
Реальные значения DR: DR7
Частота: 44100 Гц
Каналов: 2
Разрядность: 16
Битрейт: 817 кбит/с
Кодек: FLAC
================================================================================
--

• Лог проверки качества •

-----------------------
DON'T MODIFY THIS FILE
-----------------------
PERFORMER: auCDtect Task Manager, ver. 1.6.0 RC1 build 1.6.0.1Copyright (c) 2008-2010 y-soft. All rights reservedhttp://y-soft.org
ANALYZER: auCDtect: CD records authenticity detector, version 0.8.2Copyright (c) 2004 Oleg Berngardt. All rights reserved.Copyright (c) 2004 Alexander Djourik. All rights reserved.
FILE: 06 - Prismatic Tesseract (TRS Remix).flac Size: 43815564 Hash: E419BEC563CE30B2D77914222AB44B62 Accuracy: -m0 Conclusion: CDDA 100% Signature: 0B8BD7B16E2609AC2A74FF613B354BA904833F6EFILE: 05 - Squarewolf (Klaada Remix).flac Size: 63170240 Hash: E588A31DCEE6C9D9F42EDA779A791E8A Accuracy: -m0 Conclusion: CDDA 100% Signature: 0BCAB10EE4757D3527897F672F595CC4DF20768DFILE: 04 - Quantum Carnival (Sapien Re-Dub).flac Size: 34099378 Hash: 8C9AF79016A0132391DB51BAF6F3DBAE Accuracy: -m0 Conclusion: CDDA 100% Signature: 13187CAF0B68CCF60552ADFB804B8AC1F68E58BCFILE: 03 - Prismatic Tesseract.flac Size: 52104171 Hash: 08D91090EFD8BEF4B6AF1F7214E93CBA Accuracy: -m0 Conclusion: CDDA 100% Signature: 8EB8DA9F9A38DBE2EFAD636091B7952F45FD1707FILE: 02 - Squarewolf.flac Size: 40177102 Hash: 6E5CFECF71695DFBAAF58E5524D01CB5 Accuracy: -m0 Conclusion: CDDA 100% Signature: 54A74BA29F96F31EAA84E5CE325479B6EEA4BF02FILE: 01 - Quantum Carnival.flac Size: 48092244 Hash: 47C9D85D22A0658FC86CE54544C1DC8E Accuracy: -m0 Conclusion: CDDA 100% Signature: DD1AFC15185E4B0A0636CE813AFAF042A3B42CDC
--

• Скриншот спектра частот •

______________________________________


[galltoto.com]_t_5612165.torrent
Торрент: Зарегистрирован ·  [ 2018-09-19 19:22 ] ·  18b02e8e35216cdcd37002b6d7787b2bdf614d83

11 KB

Статус: проверено
Скачан: 0 раз
Размер: 267 MB
Оценка: 
(Голосов: 0)
Сказали спасибо: 0  Спасибо
Похожие темы
[Профиль]    [ЛС]
Показать сообщения:    
Ответить на тему

Текущее время: Сегодня 01:28

Часовой пояс: GMT + 7



Вы не можете начинать темы
Вы не можете отвечать на сообщения
Вы не можете редактировать свои сообщения
Вы не можете удалять свои сообщения
Вы не можете голосовать в опросах
Вы не можете прикреплять файлы к сообщениям
Вы можете скачивать файлы


Edwardian Mirror - Valentine's Day Heart - English Sterling 1907 | The Lizzie Borden Chronicles | Home Decor