(Trance, Downtempo, Psy-Trance, Ambient) [CD] VA - Random - 2004 [KPXCD33], FLAC (tracks+.cue), lossless

Ответить на тему
Статистика раздачи [Обновить пиров]
Размер:  429 MB   |    Зарегистрирован:  3 месяца 27 дней   |    Скачан:  0 раз

Полного источника не было: Никогда

 
   
 
 
 
Автор Сообщение

galltoto.com

Создавать темы 19-Сен-2018 19:22

[Цитировать]

Random
[img=right]http://i2.imageban.ru/out/2018/09/18/b89cb890a3755...034f29.jpg[/img]
Жанр: Trance, Downtempo, Psy-Trance, Ambient
Носитель: CD
Страна-производитель диска (релиза): UK
Год издания: 2004
Издатель (лейбл): Koyote Records
Номер по каталогу: KPXCD33
Аудиокодек: FLAC (*.flac)
Тип рипа: tracks+.cue
Битрейт аудио: lossless
Продолжительность: 01:17:24
Источник (релизер): обмен
Наличие сканов в содержимом раздачи: нет
Треклист:
01 - Mantak - Horror Theme (2:14)
02 - Captain Ginger - Rainman (3:41)
03 - Sam Spacey - Slow Motion (6:31)
04 - Great Leap Forward - Sniff (6:28)
05 - Eric The Viking - Viking Navigators (6:04)
06 - Aphid Moon - Star People (8:04)
07 - Polaris - Thor (7:03)
08 - Front Minimale - Sphrinchles Spooks (6:08)
09 - Angels vs Aliens - Two Left Feet (1:38)
10 - Humito - Wider Horizons (6:29)
11 - Machineries Of Heaven - Dark Sky (3:09)
12 - Revolution Void - Obscure Terrain (3:36)
13 - Captain Ginger - Sundown (3:21)
14 - Yuji Hosoe - Evening Calm (2:51)
15 - That Black - Amo (3:55)
16 - Mantak - Easy Pieces (6:04)
17 - Unknown Artist - ...Tee Hee (0:08)

Лог создания рипа

Exact Audio Copy V1.0 beta 3 from 29. August 2011
EAC extraction logfile from 23. June 2014, 22:04
Various Artists / Random
Used drive : ASUS DRW-24B5ST Adapter: 3 ID: 0
Read mode : SecureUtilize accurate stream : YesDefeat audio cache : YesMake use of C2 pointers : No
Read offset correction : 6Overread into Lead-In and Lead-Out : NoFill up missing offset samples with silence : YesDelete leading and trailing silent blocks : NoNull samples used in CRC calculations : YesUsed interface : Native Win32 interface for Win NT & 2000Gap handling : Appended to previous track
Used output format : User Defined EncoderSelected bitrate : 896 kBit/sQuality : HighAdd ID3 tag : NoCommand line compressor : C:\Program Files (x86)\Exact Audio Copy\Flac\flac.exeAdditional command line options : -8 -V -T "ARTIST=%artist%" -T "TITLE=%title%" -T "ALBUM=%albumtitle%" -T "DATE=%year%" -T "TRACKNUMBER=%tracknr%" -T "GENRE=%genre%" -T "PERFORMER=%albuminterpret%" -T "COMPOSER=%composer%" %haslyrics%--tag-from-file=LYRICS="%lyricsfile%"%haslyrics% -T "ALBUMARTIST=%albumartist%" -T "DISCNUMBER=%cdnumber%" -T "TOTALDISCS=%totalcds%" -T "TOTALTRACKS=%numtracks%" -T "COMMENT=%comment%" %source% -o %dest%
TOC of the extracted CD
Track | Start | Length | Start sector | End sector --------------------------------------------------------- 1 | 0:00.00 | 2:14.06 | 0 | 10055 2 | 2:14.06 | 3:40.50 | 10056 | 26605 3 | 5:54.56 | 6:30.67 | 26606 | 55922 4 | 12:25.48 | 6:27.73 | 55923 | 85020 5 | 18:53.46 | 6:04.36 | 85021 | 112356 6 | 24:58.07 | 8:04.23 | 112357 | 148679 7 | 33:02.30 | 7:03.23 | 148680 | 180427 8 | 40:05.53 | 6:08.17 | 180428 | 208044 9 | 46:13.70 | 1:37.67 | 208045 | 215386 10 | 47:51.62 | 6:28.41 | 215387 | 244527 11 | 54:20.28 | 3:08.59 | 244528 | 258686 12 | 57:29.12 | 3:35.70 | 258687 | 274881 13 | 61:05.07 | 3:20.59 | 274882 | 289940 14 | 64:25.66 | 2:51.23 | 289941 | 302788 15 | 67:17.14 | 3:55.06 | 302789 | 320419 16 | 71:12.20 | 6:04.32 | 320420 | 347751 17 | 77:16.52 | 0:07.52 | 347752 | 348328
Track 1
Filename L:\MUSIC\VA - Random (2004) [CD-FLAC]\1-01. Mantak - Horror Theme.wav
Pre-gap length 0:00:02.00
Peak level 94.0 % Extraction speed 1.1 X Track quality 99.9 % Test CRC 7BF47AA7 Copy CRC 7BF47AA7 Accurately ripped (confidence 1) [78CDE519] (AR v1) Copy OK
Track 2
Filename L:\MUSIC\VA - Random (2004) [CD-FLAC]\1-02. Captain Ginger - Rainman.wav
Peak level 88.1 % Extraction speed 2.1 X Track quality 100.0 % Test CRC FCBC1443 Copy CRC FCBC1443 Accurately ripped (confidence 1) [E865CDB5] (AR v1) Copy OK
Track 3
Filename L:\MUSIC\VA - Random (2004) [CD-FLAC]\1-03. Sam Spacey - Slow Motion.wav
Peak level 98.4 % Extraction speed 2.6 X Track quality 100.0 % Test CRC 2F37BAA6 Copy CRC 2F37BAA6 Accurately ripped (confidence 1) [5197414B] (AR v1) Copy OK
Track 4
Filename L:\MUSIC\VA - Random (2004) [CD-FLAC]\1-04. Great Leap Forward - Sniff.wav
Peak level 94.1 % Extraction speed 2.8 X Track quality 100.0 % Test CRC 76044F8B Copy CRC 76044F8B Accurately ripped (confidence 1) [29C21F23] (AR v1) Copy OK
Track 5
Filename L:\MUSIC\VA - Random (2004) [CD-FLAC]\1-05. Eric The Viking - Viking Navigators.wav
Peak level 88.9 % Extraction speed 3.1 X Track quality 100.0 % Test CRC EF92A472 Copy CRC EF92A472 Accurately ripped (confidence 1) [619E41DB] (AR v1) Copy OK
Track 6
Filename L:\MUSIC\VA - Random (2004) [CD-FLAC]\1-06. Aphid Moon - Star People.wav
Peak level 100.0 % Extraction speed 3.4 X Track quality 100.0 % Test CRC 2FBCE9C9 Copy CRC 2FBCE9C9 Accurately ripped (confidence 1) [487B41BE] (AR v1) Copy OK
Track 7
Filename L:\MUSIC\VA - Random (2004) [CD-FLAC]\1-07. Polaris - Thor.wav
Peak level 100.0 % Extraction speed 2.9 X Track quality 99.9 % Test CRC 98BD24C8 Copy CRC 98BD24C8 Accurately ripped (confidence 1) [B30CEA09] (AR v1) Copy OK
Track 8
Filename L:\MUSIC\VA - Random (2004) [CD-FLAC]\1-08. Front Minimale - Sphrinchles Spooks.wav
Pre-gap length 0:00:00.01
Peak level 100.0 % Extraction speed 3.7 X Track quality 100.0 % Test CRC 4F632E90 Copy CRC 4F632E90 Accurately ripped (confidence 1) [F0D81116] (AR v1) Copy OK
Track 9
Filename L:\MUSIC\VA - Random (2004) [CD-FLAC]\1-09. Angels vs Aliens - Two Left Feet.wav
Peak level 70.9 % Extraction speed 3.1 X Track quality 100.0 % Test CRC 67086606 Copy CRC 67086606 Accurately ripped (confidence 1) [73D6F570] (AR v1) Copy OK
Track 10
Filename L:\MUSIC\VA - Random (2004) [CD-FLAC]\1-10. Humito - Wider Horizons.wav
Peak level 88.5 % Extraction speed 4.1 X Track quality 100.0 % Test CRC C34C714A Copy CRC C34C714A Accurately ripped (confidence 1) [97A4406C] (AR v1) Copy OK
Track 11
Filename L:\MUSIC\VA - Random (2004) [CD-FLAC]\1-11. Machineries Of Heaven - Dark Sky.wav
Peak level 64.4 % Extraction speed 3.8 X Track quality 100.0 % Test CRC 766C720D Copy CRC 766C720D Accurately ripped (confidence 1) [D26A5D14] (AR v1) Copy OK
Track 12
Filename L:\MUSIC\VA - Random (2004) [CD-FLAC]\1-12. Revolution Void - Obscure Terrain.wav
Peak level 100.0 % Extraction speed 4.0 X Track quality 100.0 % Test CRC FFE57F3B Copy CRC FFE57F3B Accurately ripped (confidence 1) [93BF6837] (AR v1) Copy OK
Track 13
Filename L:\MUSIC\VA - Random (2004) [CD-FLAC]\1-13. Captain Ginger - Sundown.wav
Peak level 83.1 % Extraction speed 4.0 X Track quality 100.0 % Test CRC 58756417 Copy CRC 58756417 Accurately ripped (confidence 1) [C59229C5] (AR v1) Copy OK
Track 14
Filename L:\MUSIC\VA - Random (2004) [CD-FLAC]\1-14. Yuji Hosoe - Evening Calm.wav
Peak level 95.7 % Extraction speed 2.6 X Track quality 99.9 % Test CRC 15D64689 Copy CRC 15D64689 Accurately ripped (confidence 1) [9C48E516] (AR v1) Copy OK
Track 15
Filename L:\MUSIC\VA - Random (2004) [CD-FLAC]\1-15. That Black - Amo.wav
Peak level 72.7 % Extraction speed 4.2 X Track quality 100.0 % Test CRC 5C3F3531 Copy CRC 5C3F3531 Accurately ripped (confidence 1) [4E0377F7] (AR v1) Copy OK
Track 16
Filename L:\MUSIC\VA - Random (2004) [CD-FLAC]\1-16. Mantak - Easy Pieces.wav
Peak level 98.5 % Extraction speed 4.5 X Track quality 100.0 % Test CRC CB8C0EB1 Copy CRC CB8C0EB1 Accurately ripped (confidence 1) [15652EC8] (AR v1) Copy OK
Track 17
Filename L:\MUSIC\VA - Random (2004) [CD-FLAC]\1-17. Unknown Artist - ...Tee Hee.wav
Peak level 32.7 % Extraction speed 0.8 X Track quality 100.0 % Test CRC 872DEC63 Copy CRC 872DEC63 Accurately ripped (confidence 1) [35244A5E] (AR v1) Copy OK
All tracks accurately ripped
No errors occurred
End of status report
---- CUETools DB Plugin V2.1.3
[CTDB TOCID: Z3fqBmP2Z_yYlF7epgsTTFXPKWs-] found, Submit result: Z3fqBmP2Z_yYlF7epgsTTFXPKWs- has been uploaded[c4fc3516] (1/1) Differs in 2 samples @00:42:71You can use CUETools to repair this rip.
==== Log checksum E70DB398AC47DA49E528E29C64716D29DB5F0F275DBA070D84383BB707DC83AB ====

Содержание индексной карты (.CUE)

REM GENRE "Breakbeat, Trance, Downtempo, Psy-Trance, Ambient"REM DATE 2004REM DISCID 07122411REM COMMENT "ExactAudioCopy v1.0b3"CATALOG 0000000000000PERFORMER "Various Artists"TITLE "Random"FILE "1-01. Mantak - Horror Theme.wav" WAVE TRACK 01 AUDIO TITLE "Horror Theme" PERFORMER "Mantak" INDEX 01 00:00:00FILE "1-02. Captain Ginger - Rainman.wav" WAVE TRACK 02 AUDIO TITLE "Rainman" PERFORMER "Captain Ginger" INDEX 01 00:00:00FILE "1-03. Sam Spacey - Slow Motion.wav" WAVE TRACK 03 AUDIO TITLE "Slow Motion" PERFORMER "Sam Spacey" INDEX 01 00:00:00FILE "1-04. Great Leap Forward - Sniff.wav" WAVE TRACK 04 AUDIO TITLE "Sniff" PERFORMER "Great Leap Forward" INDEX 01 00:00:00FILE "1-05. Eric The Viking - Viking Navigators.wav" WAVE TRACK 05 AUDIO TITLE "Viking Navigators" PERFORMER "Eric The Viking" INDEX 01 00:00:00FILE "1-06. Aphid Moon - Star People.wav" WAVE TRACK 06 AUDIO TITLE "Star People" PERFORMER "Aphid Moon" INDEX 01 00:00:00FILE "1-07. Polaris - Thor.wav" WAVE TRACK 07 AUDIO TITLE "Thor" PERFORMER "Polaris" INDEX 01 00:00:00 TRACK 08 AUDIO TITLE "Sphrinchles Spooks" PERFORMER "Front Minimale" INDEX 00 07:03:22FILE "1-08. Front Minimale - Sphrinchles Spooks.wav" WAVE INDEX 01 00:00:00FILE "1-09. Angels vs Aliens - Two Left Feet.wav" WAVE TRACK 09 AUDIO TITLE "Two Left Feet" PERFORMER "Angels vs Aliens" INDEX 01 00:00:00FILE "1-10. Humito - Wider Horizons.wav" WAVE TRACK 10 AUDIO TITLE "Wider Horizons" PERFORMER "Humito" INDEX 01 00:00:00FILE "1-11. Machineries Of Heaven - Dark Sky.wav" WAVE TRACK 11 AUDIO TITLE "Dark Sky" PERFORMER "Machineries Of Heaven" INDEX 01 00:00:00FILE "1-12. Revolution Void - Obscure Terrain.wav" WAVE TRACK 12 AUDIO TITLE "Obscure Terrain" PERFORMER "Revolution Void" INDEX 01 00:00:00FILE "1-13. Captain Ginger - Sundown.wav" WAVE TRACK 13 AUDIO TITLE "Sundown" PERFORMER "Captain Ginger" INDEX 01 00:00:00FILE "1-14. Yuji Hosoe - Evening Calm.wav" WAVE TRACK 14 AUDIO TITLE "Evening Calm" PERFORMER "Yuji Hosoe" INDEX 01 00:00:00FILE "1-15. That Black - Amo.wav" WAVE TRACK 15 AUDIO TITLE "Amo" PERFORMER "That Black" INDEX 01 00:00:00FILE "1-16. Mantak - Easy Pieces.wav" WAVE TRACK 16 AUDIO TITLE "Easy Pieces" PERFORMER "Mantak" INDEX 01 00:00:00FILE "1-17. Unknown Artist - ...Tee Hee.wav" WAVE TRACK 17 AUDIO TITLE "...Tee Hee" PERFORMER "Unknown Artist" INDEX 01 00:00:00


[galltoto.com]_t_5615137.torrent
Торрент: Зарегистрирован ·  [ 2018-09-19 19:22 ] ·  7c5c4d07e413a5fe2712845ea44ea42350d556d4

18 KB

Статус: проверено
Скачан: 0 раз
Размер: 429 MB
Оценка: 
(Голосов: 0)
Сказали спасибо: 0  Спасибо
Похожие темы
[Профиль]    [ЛС]
Показать сообщения:    
Ответить на тему

Текущее время: Сегодня 02:13

Часовой пояс: GMT + 7



Вы не можете начинать темы
Вы не можете отвечать на сообщения
Вы не можете редактировать свои сообщения
Вы не можете удалять свои сообщения
Вы не можете голосовать в опросах
Вы не можете прикреплять файлы к сообщениям
Вы можете скачивать файлы


Danna ga Nani wo Itteiru ka Wakaranai Ken 2 Sure Me Subtitle Indonesia | Kalender 2019 DINA1 gefaltet Wandplaner Wandkalender Jahresplaner Jahreskalender | the da vinci coed