(PsyChill | Ambient | Downtempo) [WEB] Magic Sound Fabric - Lucid - 2015, FLAC (tracks), lossless

Ответить на тему
Статистика раздачи [Обновить пиров]
Размер:  380 MB   |    Зарегистрирован:  3 месяца 27 дней   |    Скачан:  0 раз

Полного источника не было: Никогда

 
   
 
 
 
Автор Сообщение

galltoto.com

Создавать темы 19-Сен-2018 17:55

[Цитировать]



Magic Sound Fabric
Lucid





• Жанр: PsyChill | Ambient | Downtempo
• Носитель: WEB
• Год издания: 2015
• Издатель (лейбл) Spiralight
• Номер по каталогу: #sl-800112
• Страна-производитель релиза: USA & Canada
• Аудиокодек: FLAC (*.flac)
• Тип рипа: tracks
• Продолжительность: 01:06:21
• Источник (релизер): NTplosha ®
• WEB bandcamp
• Наличие сканов: front


01 - Rise Above (00:05:18)
02 - Love Is The Key (00:05:53)
03 - I Rise (00:06:04)
04 - Shadows On The Wall (00:05:09)
05 - Mind Is Free (00:05:58)
06 - Dream Walk (00:06:11)
07 - Liberation Station (00:05:51)
08 - So Easy (00:08:09)
09 - Flow (00:06:25)
10 - Spirit Vision (00:07:06)
11 - Itty Bitty Box (00:04:12)

-
-

• Замер динамического диапазона

foobar2000 1.3.9 / Замер динамического диапазона (DR) 1.1.1Дата отчёта: 2018-07-25 17:51:19
--------------------------------------------------------------------------------Анализ: Magic Sound Fabric / Lucid--------------------------------------------------------------------------------
DR Пики RMS Продолжительность трека--------------------------------------------------------------------------------DR8 -0.24 дБ -10.80 дБ 5:19 01-Rise AboveDR8 -0.27 дБ -10.81 дБ 5:54 02-Love is the KeyDR8 -0.20 дБ -10.48 дБ 6:04 03-I RiseDR9 -0.23 дБ -11.24 дБ 5:09 04-Shadows on the WallDR8 -0.08 дБ -10.49 дБ 5:59 05-Mind is FreeDR9 -0.16 дБ -11.19 дБ 6:11 06-Dream WalkDR7 -0.15 дБ -9.45 дБ 5:51 07-Liberation StationDR8 -0.05 дБ -9.46 дБ 8:10 08-So EasyDR8 -0.18 дБ -9.96 дБ 6:25 09-FlowDR8 -0.20 дБ -11.26 дБ 7:07 10-Spirit VisionDR8 -0.08 дБ -9.53 дБ 4:12 11-Itty Bitty Box--------------------------------------------------------------------------------
Количество треков: 11Реальные значения DR: DR8
Частота: 44100 ГцКаналов: 2Разрядность: 16Битрейт: 951 кбит/сКодек: FLAC================================================================================
-

• Лог проверки качества

-----------------------
DON'T MODIFY THIS FILE
-----------------------
PERFORMER: auCDtect Task Manager, ver. 1.6.0 RC1 build 1.6.0.1Copyright (c) 2008-2010 y-soft. All rights reservedhttp://y-soft.org
ANALYZER: auCDtect: CD records authenticity detector, version 0.8.2Copyright (c) 2004 Oleg Berngardt. All rights reserved.Copyright (c) 2004 Alexander Djourik. All rights reserved.
FILE: 11. Itty Bitty Box.flac Size: 30209176 Hash: FFA6D015CDE7682F7A48B8C27800776F Accuracy: -m0 Conclusion: CDDA 100% Signature: FD7FA27CA526900E446452FFDB9F7620C26C0C6CFILE: 10. Spirit Vision.flac Size: 44739512 Hash: 38CB029D8285E35C0A3EB141757BE7E1 Accuracy: -m0 Conclusion: CDDA 100% Signature: FA0D212019FEF63B2B2DBD7002C950DCA64B6851FILE: 09. Flow.flac Size: 37583268 Hash: 7239A64E94AD8379908354F76C3AFA78 Accuracy: -m0 Conclusion: CDDA 100% Signature: 83637A9AC6E71E27B74285FC163055C69C464343FILE: 08. So Easy.flac Size: 48243368 Hash: A94721DF5DC37E93AE9EF66C46FA1AD9 Accuracy: -m0 Conclusion: CDDA 99% Signature: 4B1447864DB9CCB52FBFCEB07174DA5D7D47052AFILE: 07. Liberation Station.flac Size: 32163449 Hash: C872DE193A81D5673266E6B9BEAB185B Accuracy: -m0 Conclusion: CDDA 100% Signature: 782BC930C2D14E4C4A4387AFF5F937483FFA913CFILE: 06. Dream Walk.flac Size: 36426908 Hash: C584140D7B9C19D7FFCD02C4CA7984B5 Accuracy: -m0 Conclusion: CDDA 100% Signature: C77D76420282BA650B1B3BDB15163CECE46B5A30FILE: 05. Mind is Free.flac Size: 36393480 Hash: 522EA71DC8F337CD0AE4620B4C6D7F9A Accuracy: -m0 Conclusion: CDDA 100% Signature: 82B280DAD8A766D491378885EE1B0F18B63DD9A2FILE: 04. Shadows on the Wall.flac Size: 31402297 Hash: 3525DA61E66F2C207A97275633779A91 Accuracy: -m0 Conclusion: CDDA 100% Signature: 14215E61E2C33AFDC678416E21EE4D039892A871FILE: 03. I Rise.flac Size: 38775143 Hash: 865EF668C6EA6FF68E7C1C019181448B Accuracy: -m0 Conclusion: CDDA 100% Signature: BBCE9AFC20EC5DF63011EB4A14B709745239C51DFILE: 02. Love is the Key.flac Size: 31432444 Hash: 6F0C2542A3E08DE54F9C5989250C8052 Accuracy: -m0 Conclusion: CDDA 100% Signature: E1F8AABD1D7067D1BCACD1A4F7BA8A69D9B8CEAFFILE: 01. Rise Above.flac Size: 30842756 Hash: 87FA1BA7644D4593702092833488A368 Accuracy: -m0 Conclusion: CDDA 100% Signature: 2B0DD68C25A8A2AE6698F943E3C017AF5DF55A7B
-

• Скриншот подозрительных спектров

-


[galltoto.com]_t_5592102.torrent
Торрент: Зарегистрирован ·  [ 2018-09-19 17:55 ] ·  eabaa5864182706d640ace79263318cae0d202b0

16 KB

Статус: проверено
Скачан: 0 раз
Размер: 380 MB
Оценка: 
(Голосов: 0)
Сказали спасибо: 0  Спасибо
Похожие темы
[Профиль]    [ЛС]
Показать сообщения:    
Ответить на тему

Текущее время: Сегодня 01:43

Часовой пояс: GMT + 7



Вы не можете начинать темы
Вы не можете отвечать на сообщения
Вы не можете редактировать свои сообщения
Вы не можете удалять свои сообщения
Вы не можете голосовать в опросах
Вы не можете прикреплять файлы к сообщениям
Вы можете скачивать файлы


Glandeur Nature | Ver The Innocent Man (2018) Online | Más detalles