(Psybient | Breaks | Ambient) [WEB] Miraceti - Whale Space Journeys (EP) - 2018, FLAC (tracks), lossless

Ответить на тему
Статистика раздачи [Обновить пиров]
Размер:  207 MB   |    Зарегистрирован:  3 месяца 27 дней   |    Скачан:  0 раз

Полного источника не было: Никогда

 
   
 
 
 
Автор Сообщение

galltoto.com

Создавать темы 19-Сен-2018 17:55

[Цитировать]


Miraceti

Whale Space Journeys

[img]http://i104.fastpic.ru/big/2018/0722/f0/ff6e4c6327...7a5bf0.jpg[/img]


• Жанр: Psybient | Breaks | Ambient
• Носитель: WEB
• Год издания: 2018
• Издатель (лейбл) Mamomam Records
• Номер по каталогу: MAMOMAM009
• Страна-производитель релиза: Poland
• Аудиокодек: FLAC (*.flac)
• Тип рипа: tracks
• Продолжительность: 00:31:56
• Источник (релизер): NTplosha ®
• WEB bandcamp
• Наличие сканов: front

01 - Amazonian Trip (00:07:57)
02 - Rainforest Vibe (00:09:42)
03 - Entheogenic Experience (00:07:17)
04 - Amazonian Trip (Red Sun Rising Remix) (00:06:59)-
-

Замер динамического диапазона

foobar2000 1.3.17 / Замер динамического диапазона (DR) 1.1.1Дата отчёта: 2018-07-26 20:31:29
--------------------------------------------------------------------------------Анализ: Miraceti / Whale Space Journeys--------------------------------------------------------------------------------
DR Пики RMS Продолжительность трека--------------------------------------------------------------------------------DR9 -0.60 дБ -12.10 дБ 7:57 01-Amazonian TripDR7 -0.60 дБ -8.69 дБ 9:42 02-Rainforest VibeDR6 -0.60 дБ -8.36 дБ 7:18 03-Entheogenic ExperienceDR9 -0.60 дБ -11.58 дБ 6:59 04-Amazonian Trip (Red Sun Rising Remix)--------------------------------------------------------------------------------
Количество треков: 4Реальные значения DR: DR8
Частота: 44100 ГцКаналов: 2Разрядность: 16Битрейт: 854 кбит/сКодек: FLAC================================================================================
-

Лог проверки качества

-----------------------
DON'T MODIFY THIS FILE
-----------------------
PERFORMER: auCDtect Task Manager, ver. 1.6.0 RC1 build 1.6.0.1Copyright (c) 2008-2010 y-soft. All rights reservedhttp://y-soft.org
ANALYZER: auCDtect: CD records authenticity detector, version 0.8.2Copyright (c) 2004 Oleg Berngardt. All rights reserved.Copyright (c) 2004 Alexander Djourik. All rights reserved.
FILE: 04 - Amazonian Trip (Red Sun Rising Remix).flac Size: 44904306 Hash: 7479B63FA721A38383C22ACECACD2B99 Accuracy: -m0 Conclusion: CDDA 100% Signature: EF8528D822F3CA35717733F59BA6E0CB697B9DDDFILE: 03 - Entheogenic Experience.flac Size: 48086413 Hash: 22472B8F64063BFC5AD0C6897D66A241 Accuracy: -m0 Conclusion: CDDA 86% Signature: C6F419996CEAC4AC42C31DD6C7ABC4CB1B6C0DF5FILE: 02 - Rainforest Vibe.flac Size: 74668727 Hash: 986A4DAEB450F58B8B2F9902A89BF98F Accuracy: -m0 Conclusion: CDDA 85% Signature: ED27AE9B023668A46DD376EA8AC10D3092C2296BFILE: 01 - Amazonian Trip.flac Size: 47147259 Hash: 7F767873F0710C151121DC9F7F5D0277 Accuracy: -m0 Conclusion: CDDA 100% Signature: 69E4AF573317DD55A4BC754FE66F6B53770A9689
-

Скриншот подозрительных спектров

-


[galltoto.com]_t_5592518.torrent
Торрент: Зарегистрирован ·  [ 2018-09-19 17:55 ] ·  a5bed8ac96abed1e4fce80779b7a81c04f043bc6

17 KB

Статус: проверено
Скачан: 0 раз
Размер: 207 MB
Оценка: 
(Голосов: 0)
Сказали спасибо: 0  Спасибо
Похожие темы
[Профиль]    [ЛС]
Показать сообщения:    
Ответить на тему

Текущее время: Сегодня 01:39

Часовой пояс: GMT + 7



Вы не можете начинать темы
Вы не можете отвечать на сообщения
Вы не можете редактировать свои сообщения
Вы не можете удалять свои сообщения
Вы не можете голосовать в опросах
Вы не можете прикреплять файлы к сообщениям
Вы можете скачивать файлы


Скачать | SVC Agent 4.0.00.3 | Harry Potter und der Halbblutprinz