(Psychill | Ambient ) [WEB] Tea Tree - Leguminous - 2018, FLAC (tracks), lossless

Ответить на тему
Статистика раздачи [Обновить пиров]
Размер:  147 MB   |    Зарегистрирован:  3 месяца 27 дней   |    Скачан:  0 раз

Полного источника не было: Никогда

 
   
 
 
 
Автор Сообщение

galltoto.com

Создавать темы 19-Сен-2018 17:55

[Цитировать]

Tea Tree - Leguminous



• Жанр: Psychill | Ambient
• Носитель: WEB
• Год издания: 2018
• Издатель Mindspring Music
• Номер по каталогу: MSM047
• Страна-производитель релиза: USA, Dallas, Texas
• Аудиокодек: FLAC (*.flac)
• Тип рипа: tracks
• Продолжительность: 00:22:32
• Источник (релизер):NTDMMANIAC ®
• WEB bandcamp
• Наличие сканов: front

01 - Fossil Forest (00:06:51)
02 - Leguminous (00:06:42)
03 - Tea Tech (00:08:57)
-

• Замер динамического диапазона •

foobar2000 1.2.5 / Замер динамического диапазона (DR) 1.1.1
Дата отчёта: 2018-04-26 00:33:53
--------------------------------------------------------------------------------
Анализ: Tea Tree / Leguminous
--------------------------------------------------------------------------------
DR Пики RMS Продолжительность трека
--------------------------------------------------------------------------------
DR5 0.00 дБ -7.61 дБ 6:52 01-Fossil Forest
DR5 0.00 дБ -7.85 дБ 6:43 02-Leguminous
DR5 0.00 дБ -6.75 дБ 8:58 03-Tea Tech
--------------------------------------------------------------------------------
Количество треков: 3
Реальные значения DR: DR5
Частота: 44100 Гц
Каналов: 2
Разрядность: 16
Битрейт: 949 кбит/с
Кодек: FLAC
================================================================================
--

• Лог проверки качества •

-----------------------
DON'T MODIFY THIS FILE
-----------------------
PERFORMER: auCDtect Task Manager, ver. 1.6.0 RC1 build 1.6.0.1Copyright (c) 2008-2010 y-soft. All rights reservedhttp://y-soft.org
ANALYZER: auCDtect: CD records authenticity detector, version 0.8.2Copyright (c) 2004 Oleg Berngardt. All rights reserved.Copyright (c) 2004 Alexander Djourik. All rights reserved.
FILE: 03 - Tea Tech.flac Size: 64073992 Hash: 45007686E333E24EB4283F6C754E35DB Accuracy: -m0 Conclusion: CDDA 100% Signature: 3BFFF8B47CF06D3CC71851B85591EB257607B018FILE: 02 - Leguminous.flac Size: 43796393 Hash: 7ECA0C5EC73FA6729F1A35AA7E1EFE7A Accuracy: -m0 Conclusion: CDDA 100% Signature: 6BB1F0F2FABE01649EB8E71D43E085E1986992EBFILE: 01 - Fossil Forest.flac Size: 45877657 Hash: D640BEBD6A94D0043887E87999B3A3D5 Accuracy: -m0 Conclusion: CDDA 100% Signature: AC600AA91D7B1AFFD6CCCD1C1A4BB5C8D67C4E32
--______________________________________


[galltoto.com]_t_5592794.torrent
Торрент: Зарегистрирован ·  [ 2018-09-19 17:55 ] ·  c59fe65b419a9401ea400e3a0ecc3af7e1b5478d

12 KB

Статус: проверено
Скачан: 0 раз
Размер: 147 MB
Оценка: 
(Голосов: 0)
Сказали спасибо: 0  Спасибо
Похожие темы
[Профиль]    [ЛС]
Показать сообщения:    
Ответить на тему

Текущее время: Сегодня 01:33

Часовой пояс: GMT + 7



Вы не можете начинать темы
Вы не можете отвечать на сообщения
Вы не можете редактировать свои сообщения
Вы не можете удалять свои сообщения
Вы не можете голосовать в опросах
Вы не можете прикреплять файлы к сообщениям
Вы можете скачивать файлы


Smoke Cake Colorful Smoke Effect Show Round Bomb Photography Aid Toy Divine N15 | Juicy Blunts Tube King Size for cones or tubes Rolling papers - 12 Pure FLAVORS | Primaire Antirouille Haute Resistance Rustol Cip 0.75L