(Psychill | Ambient ) [WEB] Taica - Those Who Are Hidden - 2018, FLAC (tracks), lossless

Ответить на тему
Статистика раздачи [Обновить пиров]
Размер:  173 MB   |    Зарегистрирован:  3 месяца 27 дней   |    Скачан:  0 раз

Полного источника не было: Никогда

 
   
 
 
 
Автор Сообщение

galltoto.com

Создавать темы 19-Сен-2018 17:55

[Цитировать]

Taica - Those Who Are Hidden



• Жанр: Psychill | Ambient
• Носитель: WEB
• Год издания: 2018
• Издатель Mindspring Music
• Номер по каталогу: MSM051
• Страна-производитель релиза: USA, Dallas, Texas
• Аудиокодек: FLAC (*.flac)
• Тип рипа: tracks
• Продолжительность: 00:31:21
• Источник (релизер):NTDMMANIAC ®
• WEB bandcamp
• Наличие сканов: front

01 - A Perfect Circle (00:05:49)
02 - Root Force (00:09:54)
03 - Greetings From Chaos (00:08:43)
04 - Those Who Are Hidden (00:06:53)
-

• Замер динамического диапазона •

foobar2000 1.2.5 / Замер динамического диапазона (DR) 1.1.1
Дата отчёта: 2018-05-11 17:38:50
--------------------------------------------------------------------------------
Анализ: Taica / Those Who Are Hidden
--------------------------------------------------------------------------------
DR Пики RMS Продолжительность трека
--------------------------------------------------------------------------------
DR11 0.00 дБ -13.23 дБ 5:50 01-A Perfect Circle
DR9 0.00 дБ -12.20 дБ 9:54 02-Root Force
DR11 0.00 дБ -15.83 дБ 8:43 03-Greetings From Chaos
DR8 0.00 дБ -9.86 дБ 6:54 04-Those Who Are Hidden
--------------------------------------------------------------------------------
Количество треков: 4
Реальные значения DR: DR10
Частота: 44100 Гц
Каналов: 2
Разрядность: 16
Битрейт: 776 кбит/с
Кодек: FLAC
================================================================================
--

• Лог проверки качества •

-----------------------
DON'T MODIFY THIS FILE
-----------------------
PERFORMER: auCDtect Task Manager, ver. 1.6.0 RC1 build 1.6.0.1Copyright (c) 2008-2010 y-soft. All rights reservedhttp://y-soft.org
ANALYZER: auCDtect: CD records authenticity detector, version 0.8.2Copyright (c) 2004 Oleg Berngardt. All rights reserved.Copyright (c) 2004 Alexander Djourik. All rights reserved.
FILE: 04 - Those Who Are Hidden.flac Size: 40661523 Hash: C7B9496FD9F0870091DF84BDC5A3E2B8 Accuracy: -m0 Conclusion: MPEG 90% Signature: 4F810F6F6CBE4B941A00024405433A622AB39400FILE: 03 - Greetings From Chaos.flac Size: 46490568 Hash: 53C24C605B52DFB14EEF70D2666F4A27 Accuracy: -m0 Conclusion: CDDA 43% Signature: 6CDF7E780576396C5D48DD11DEBE9A4B855C60FDFILE: 02 - Root Force.flac Size: 61426283 Hash: 19D4DF5113E1891E0F00C844A52320C7 Accuracy: -m0 Conclusion: CDDA 100% Signature: F68423D5883AE6D97976349962D1344A22929A88FILE: 01 - A Perfect Circle.flac Size: 33763214 Hash: A181009D4B970A00342F685930F09114 Accuracy: -m0 Conclusion: CDDA 76% Signature: B920ED03C9B901A4CFB9E3AB46EB0EB1E6B47901
-

• Информация •

Mindspring Music Presents: Taica - Those Who Are Hidden [MSM051]
As the forest-bound synthscapes of Taica’s “Those who are Hidden” slowly rumble in the distance, a reggae inspired myriad of enchanting vocals, shimmering chimes, and soulful electronica patiently awaits. Served chilled, the catchy rhythms and head-bobbing dub of this short-but-sweet adventure is a satisfying oasis of relaxation. The pleasant tincture of warm tones and deep arpeggiations casts a special, heartfelt glow over listeners, a soothing experience perfect for both meditative introspection or foot-stomping dance. The tribal atmosphere mixed with progressive melodies makes for quite the auditory journey in this kingdom of harmony, and we know you’re going to love it.
-______________________________________


[galltoto.com]_t_5592795.torrent
Торрент: Зарегистрирован ·  [ 2018-09-19 17:55 ] ·  66c2c41f281d82ddfb6006dac15fca61eabfa026

14 KB

Статус: проверено
Скачан: 0 раз
Размер: 173 MB
Оценка: 
(Голосов: 0)
Сказали спасибо: 0  Спасибо
Похожие темы
[Профиль]    [ЛС]
Показать сообщения:    
Ответить на тему

Текущее время: Сегодня 01:32

Часовой пояс: GMT + 7



Вы не можете начинать темы
Вы не можете отвечать на сообщения
Вы не можете редактировать свои сообщения
Вы не можете удалять свои сообщения
Вы не можете голосовать в опросах
Вы не можете прикреплять файлы к сообщениям
Вы можете скачивать файлы


Post Malone – Wow. [single] (2018) | The Mentalist | Watch movie