(Darkwave, Art Pop) [CD] Soft as Snow — Deep Wave — 2018, FLAC (tracks+.cue), lossless

Ответить на тему
Статистика раздачи [Обновить пиров]
Размер:  257 MB   |    Зарегистрирован:  5 месяцев 9 дней   |    Скачан:  0 раз

Полного источника не было: Никогда

 
   
 
 
 
Автор Сообщение

galltoto.com

Создавать темы 12-Авг-2018 12:10

[Цитировать]

Soft as Snow "Deep Wave"
СТРАНА — Norway / Germany / United Kingdom
ЖАНР — Darkwave | Art Pop | Minimal Wave
ИСТОЧНИК — redacted.ch | bandcamp.com
ИЗДАТЕЛЬ — Hyperdelia (UK)
№ ПО КАТАЛОГУ — HTH085
ФОРМАТ — CD | Album
ТИП РИПА — tracks+.cue
КОДЕК — FLAC (*.flac)
БИТРЕЙТ — lossless
РЕЛИЗ — 06.04.2018
ВРЕМЯ — 00:44:31
.
TRACK LISTING
01. Black Egg [05:03]
02. Snake [03:55]
03. Drip [03:20]
04. Deep Wave [05:02]
05. X [00:51]
06. Tropical Speed [03:29]
07. Be My Babe [00:40]
08. Pink Rushes [03:32]
09. Dry [03:14]
10. XX [01:09]
11. Sleep / Slip [04:24]
12. Låssbyn [03:59]
13. Mass [06:00]

—e a c

Exact Audio Copy V1.3 from 2. September 2016
EAC extraction logfile from 6. April 2018, 16:34
Soft as Snow / Deep Wave
Used drive : hp DVD-RAM SW820 Adapter: 1 ID: 0
Read mode : SecureUtilize accurate stream : YesDefeat audio cache : YesMake use of C2 pointers : No
Read offset correction : 6Overread into Lead-In and Lead-Out : NoFill up missing offset samples with silence : YesDelete leading and trailing silent blocks : NoNull samples used in CRC calculations : YesUsed interface : Native Win32 interface for Win NT & 2000Gap handling : Appended to previous track
Used output format : User Defined EncoderSelected bitrate : 768 kBit/sQuality : HighAdd ID3 tag : NoCommand line compressor : C:\Program Files (x86)\Exact Audio Copy\FLAC\FLAC.EXEAdditional command line options : -8 -e -p -V -T "ARTIST=%artist%" -T "TITLE=%title%" -T "ALBUM=%albumtitle%" -T "DATE=%year%" -T "TRACKNUMBER=%tracknr%" -T "GENRE=%genre%" -T "PERFORMER=%albuminterpret%" -T "COMPOSER=%composer%" %haslyrics%--tag-from-file=LYRICS="%lyricsfile%"%haslyrics% -T "ALBUMARTIST=%albumartist%" -T "DISCNUMBER=%cdnumber%" -T "TOTALDISCS=%totalcds%" -T "TOTALTRACKS=%numtracks%" -T "COMMENT=%comment%" %source% -o %dest%
TOC of the extracted CD
Track | Start | Length | Start sector | End sector --------------------------------------------------------- 1 | 0:00.00 | 5:02.74 | 0 | 22723 2 | 5:02.74 | 3:54.01 | 22724 | 40274 3 | 8:57.00 | 3:19.72 | 40275 | 55271 4 | 12:16.72 | 5:01.02 | 55272 | 77848 5 | 17:17.74 | 0:50.68 | 77849 | 81666 6 | 18:08.67 | 3:28.57 | 81667 | 97323 7 | 21:37.49 | 0:39.02 | 97324 | 100250 8 | 22:16.51 | 3:32.00 | 100251 | 116150 9 | 25:48.51 | 3:13.02 | 116151 | 130627 10 | 29:01.53 | 1:08.13 | 130628 | 135740 11 | 30:09.66 | 4:23.26 | 135741 | 155491 12 | 34:33.17 | 3:58.24 | 155492 | 173365 13 | 38:31.41 | 5:59.07 | 173366 | 200297
Track 1
Filename C:\Rips v3\Soft as Snow - Deep Wave {2018} [HTH085P] (FLAC)\01 - Black Egg.wav
Pre-gap length 0:00:02.00
Peak level 96.5 % Extraction speed 1.2 X Track quality 100.0 % Test CRC FFC414AF Copy CRC FFC414AF Track not present in AccurateRip database Copy OK
Track 2
Filename C:\Rips v3\Soft as Snow - Deep Wave {2018} [HTH085P] (FLAC)\02 - Snake.wav
Peak level 96.5 % Extraction speed 1.2 X Track quality 99.9 % Test CRC 0B54B882 Copy CRC 0B54B882 Track not present in AccurateRip database Copy OK
Track 3
Filename C:\Rips v3\Soft as Snow - Deep Wave {2018} [HTH085P] (FLAC)\03 - Drip.wav
Peak level 96.5 % Extraction speed 1.4 X Track quality 100.0 % Test CRC 6734995E Copy CRC 6734995E Track not present in AccurateRip database Copy OK
Track 4
Filename C:\Rips v3\Soft as Snow - Deep Wave {2018} [HTH085P] (FLAC)\04 - Deep Wave.wav
Peak level 96.5 % Extraction speed 1.6 X Track quality 100.0 % Test CRC 3E36A8EC Copy CRC 3E36A8EC Track not present in AccurateRip database Copy OK
Track 5
Filename C:\Rips v3\Soft as Snow - Deep Wave {2018} [HTH085P] (FLAC)\05 - X.wav
Peak level 96.5 % Extraction speed 1.0 X Track quality 100.0 % Test CRC 8DBC9328 Copy CRC 8DBC9328 Track not present in AccurateRip database Copy OK
Track 6
Filename C:\Rips v3\Soft as Snow - Deep Wave {2018} [HTH085P] (FLAC)\06 - Tropical Speed.wav
Peak level 96.5 % Extraction speed 1.6 X Track quality 100.0 % Test CRC 9B29210B Copy CRC 9B29210B Track not present in AccurateRip database Copy OK
Track 7
Filename C:\Rips v3\Soft as Snow - Deep Wave {2018} [HTH085P] (FLAC)\07 - Be My Babe.wav
Peak level 96.5 % Extraction speed 1.0 X Track quality 100.0 % Test CRC D93B8660 Copy CRC D93B8660 Track not present in AccurateRip database Copy OK
Track 8
Filename C:\Rips v3\Soft as Snow - Deep Wave {2018} [HTH085P] (FLAC)\08 - Pink Rushes.wav
Peak level 96.5 % Extraction speed 1.7 X Track quality 100.0 % Test CRC 7FB8EF5A Copy CRC 7FB8EF5A Track not present in AccurateRip database Copy OK
Track 9
Filename C:\Rips v3\Soft as Snow - Deep Wave {2018} [HTH085P] (FLAC)\09 - Dry.wav
Peak level 96.5 % Extraction speed 1.8 X Track quality 100.0 % Test CRC 7B2E6355 Copy CRC 7B2E6355 Track not present in AccurateRip database Copy OK
Track 10
Filename C:\Rips v3\Soft as Snow - Deep Wave {2018} [HTH085P] (FLAC)\10 - XX.wav
Peak level 96.5 % Extraction speed 1.4 X Track quality 100.0 % Test CRC 4C2988DD Copy CRC 4C2988DD Track not present in AccurateRip database Copy OK
Track 11
Filename C:\Rips v3\Soft as Snow - Deep Wave {2018} [HTH085P] (FLAC)\11 - Sleep,Slip.wav
Peak level 96.5 % Extraction speed 1.9 X Track quality 100.0 % Test CRC 12F72FA8 Copy CRC 12F72FA8 Track not present in AccurateRip database Copy OK
Track 12
Filename C:\Rips v3\Soft as Snow - Deep Wave {2018} [HTH085P] (FLAC)\12 - Låssbyn.wav
Peak level 96.5 % Extraction speed 2.0 X Track quality 100.0 % Test CRC 1919ECEC Copy CRC 1919ECEC Track not present in AccurateRip database Copy OK
Track 13
Filename C:\Rips v3\Soft as Snow - Deep Wave {2018} [HTH085P] (FLAC)\13 - Mass.wav
Peak level 96.5 % Extraction speed 2.2 X Track quality 100.0 % Test CRC 5F22CE24 Copy CRC 5F22CE24 Track not present in AccurateRip database Copy OK
None of the tracks are present in the AccurateRip database
No errors occurred
End of status report
---- CUETools DB Plugin V2.1.6
[CTDB TOCID: XlF6CHi_4BO6WDh6s2Fp7UtSdEI-] disk not present in databaseSubmit result: XlF6CHi_4BO6WDh6s2Fp7UtSdEI- has been uploaded
==== Log checksum 9842350106BF20E23FD7FC45385638E712E4CF16FB265EDAAA145D0ACAD86F99 ====

.c u e

REM GENRE "Darkwave"REM DATE 2018REM DISCID A30A6E0DREM COMMENT "ExactAudioCopy v1.3"PERFORMER "Soft as Snow"TITLE "Deep Wave"FILE "01. Black Egg.wav" WAVE TRACK 01 AUDIO TITLE "Black Egg" PERFORMER "Soft as Snow" FLAGS DCP INDEX 01 00:00:00FILE "02. Snake.wav" WAVE TRACK 02 AUDIO TITLE "Snake" PERFORMER "Soft as Snow" FLAGS DCP INDEX 01 00:00:00FILE "03. Drip.wav" WAVE TRACK 03 AUDIO TITLE "Drip" PERFORMER "Soft as Snow" FLAGS DCP INDEX 01 00:00:00FILE "04. Deep Wave.wav" WAVE TRACK 04 AUDIO TITLE "Deep Wave" PERFORMER "Soft as Snow" FLAGS DCP INDEX 01 00:00:00FILE "05. X.wav" WAVE TRACK 05 AUDIO TITLE "X" PERFORMER "Soft as Snow" FLAGS DCP INDEX 01 00:00:00FILE "06. Tropical Speed.wav" WAVE TRACK 06 AUDIO TITLE "Tropical Speed" PERFORMER "Soft as Snow" FLAGS DCP INDEX 01 00:00:00FILE "07. Be My Babe.wav" WAVE TRACK 07 AUDIO TITLE "Be My Babe" PERFORMER "Soft as Snow" FLAGS DCP INDEX 01 00:00:00FILE "08. Pink Rushes.wav" WAVE TRACK 08 AUDIO TITLE "Pink Rushes" PERFORMER "Soft as Snow" FLAGS DCP INDEX 01 00:00:00FILE "09. Dry.wav" WAVE TRACK 09 AUDIO TITLE "Dry" PERFORMER "Soft as Snow" FLAGS DCP INDEX 01 00:00:00FILE "10. XX.wav" WAVE TRACK 10 AUDIO TITLE "XX" PERFORMER "Soft as Snow" FLAGS DCP INDEX 01 00:00:00FILE "11. Sleep. Slip.wav" WAVE TRACK 11 AUDIO TITLE "Sleep / Slip" PERFORMER "Soft as Snow" FLAGS DCP INDEX 01 00:00:00FILE "12. Låssbyn.wav" WAVE TRACK 12 AUDIO TITLE "Låssbyn" PERFORMER "Soft as Snow" FLAGS DCP INDEX 01 00:00:00FILE "13. Mass.wav" WAVE TRACK 13 AUDIO TITLE "Mass" PERFORMER "Soft as Snow" FLAGS DCP INDEX 01 00:00:00


[galltoto.com]_t_5598374.torrent
Торрент: Зарегистрирован ·  [ 2018-08-12 12:10 ] ·  35a0c2bad77e09e4225aaa2090069317205f8494

11 KB

Статус: проверено
Скачан: 0 раз
Размер: 257 MB
Оценка: 
(Голосов: 0)
Сказали спасибо: 0  Спасибо
Похожие темы
[Профиль]    [ЛС]
Показать сообщения:    
Ответить на тему

Текущее время: Сегодня 11:31

Часовой пояс: GMT + 7



Вы не можете начинать темы
Вы не можете отвечать на сообщения
Вы не можете редактировать свои сообщения
Вы не можете удалять свои сообщения
Вы не можете голосовать в опросах
Вы не можете прикреплять файлы к сообщениям
Вы можете скачивать файлы


Viernes 13 Parte 1 | Plasma Flat Panel Displays | GoodSync Enterprise 10 9 18 9 Multilingual + Medicine[BabuPC]