(Darkwave / Ritual Ambient) [CDR] Blooding Mask - The 5 Monsters (Reissue) - 2010 (2008), FLAC (image+.cue), lossless

Ответить на тему
Статистика раздачи [Обновить пиров]
Размер:  277 MB   |    Зарегистрирован:  6 месяцев   |    Скачан:  0 раз

Полного источника не было: Никогда

 
   
 
 
 
Автор Сообщение

galltoto.com

Создавать темы 21-Июл-2018 22:29

[Цитировать]

Blooding Mask / The 5 Monsters
Жанр: Darkwave / Ritual Ambient
Носитель: CDR
Год издания: 2010 (2008)
Издатель (лейбл): I.A.P. UK
Номер по каталогу: none
Страна исполнителя (группы): UK
Аудиокодек: FLAC (*.flac)
Тип рипа: image+.cue
Битрейт аудио: lossless
Продолжительность: 00:43:47
Источник (релизер): свой рип
Наличие сканов в содержимом раздачи: да
Трек-лист:
01. Ideh. (02:33)
02. Plafond. (03:38)
03. The Cell. (02:54)
04. Hooheii. (04:29)
05. Something Wrong. (04:30)
06. Mummia. (05:26)
07. On The Way. (01:00)
08. The 5 Monsters. (04:05)
09. Lucylla. (05:23)
10. Sweet Memories. (05:11)
11. The Longest And The Shortest Trip. (01:50)
12. Ninnananna Macabra. (02:48)- -

Лог создания рипа

Exact Audio Copy V1.3 from 2. September 2016
EAC extraction logfile from 17. June 2018, 0:43
Blooding Mask / The 5 Monsters
Used drive : PIONEER DVD-RW DVR-111D Adapter: 1 ID: 0
Read mode : SecureUtilize accurate stream : YesDefeat audio cache : YesMake use of C2 pointers : No
Read offset correction : 48Overread into Lead-In and Lead-Out : NoFill up missing offset samples with silence : YesDelete leading and trailing silent blocks : NoNull samples used in CRC calculations : YesUsed interface : Native Win32 interface for Win NT & 2000
Used output format : User Defined EncoderSelected bitrate : 1024 kBit/sQuality : HighAdd ID3 tag : NoCommand line compressor : D:\Flac\flac.exeAdditional command line options : -V -8 -T "Date=%year%" -T "Genre=%genre%" %source%
TOC of the extracted CD
Track | Start | Length | Start sector | End sector --------------------------------------------------------- 1 | 0:00.00 | 2:33.36 | 0 | 11510 2 | 2:33.36 | 3:37.41 | 11511 | 27826 3 | 6:11.02 | 2:54.00 | 27827 | 40876 4 | 9:05.02 | 4:29.23 | 40877 | 61074 5 | 13:34.25 | 4:30.31 | 61075 | 81355 6 | 18:04.56 | 5:25.52 | 81356 | 105782 7 | 23:30.33 | 1:00.31 | 105783 | 110313 8 | 24:30.64 | 4:05.05 | 110314 | 128693 9 | 28:35.69 | 5:22.50 | 128694 | 152893 10 | 33:58.44 | 5:11.31 | 152894 | 176249 11 | 39:10.00 | 1:50.26 | 176250 | 184525 12 | 41:00.26 | 2:48.08 | 184526 | 197133
Range status and errors
Selected range
Filename D:\Rips from Dаrkmind\Blooding Mask - The 5 Monsters.wav
Peak level 89.1 % Extraction speed 6.7 X Range quality 99.9 % Test CRC C26671D1 Copy CRC C26671D1 Copy OK
No errors occurred
AccurateRip summary
Track 1 not present in databaseTrack 2 not present in databaseTrack 3 not present in databaseTrack 4 not present in databaseTrack 5 not present in databaseTrack 6 not present in databaseTrack 7 not present in databaseTrack 8 not present in databaseTrack 9 not present in databaseTrack 10 not present in databaseTrack 11 not present in databaseTrack 12 not present in database
None of the tracks are present in the AccurateRip database
End of status report
---- CUETools DB Plugin V2.1.6
[CTDB TOCID: bUZxVAlJzgdB_JwwUFciHr8GNmI-] disk not present in databaseSubmit result: bUZxVAlJzgdB_JwwUFciHr8GNmI- has been uploaded
==== Log checksum 94C97F45134BFD399F9CE2CAA6443E83BF3B0167FF8C700BE315D822C2628D8E ====

Лог проверки качества

-----------------------
DON'T MODIFY THIS FILE
-----------------------
PERFORMER: auCDtect Task Manager, ver. 1.6.0 RC1 build 1.6.0.1Copyright (c) 2008-2010 y-soft. All rights reservedhttp://y-soft.org
ANALYZER: auCDtect: CD records authenticity detector, version 0.8.2Copyright (c) 2004 Oleg Berngardt. All rights reserved.Copyright (c) 2004 Alexander Djourik. All rights reserved.
FILE: Blooding Mask - The 5 Monsters.flac Size: 240397460 Hash: 9C7322E3DFC58C90C56467203F9F4CB8 Accuracy: -m0 Conclusion: CDDA 100% Signature: 4D5DFB994BDFACD3CA04B55C59022796A1E1416C
-

Доп. информация

Pro-printed CD-R released in a triangular sleeve called "Triangular Psychic Pack".

Состав

Maethelyiah - vocals, all instruments, words & music.
Awen Hotep - synth, actor.
Live musicians:
Roberto Lucanato - guitar.
Diego Banchero - bass.
Fernando Cherchi - drums.
-

Биография

Blooding Mask is one of the very few artists to dare featuring real magic rituals in music, recorded as well as on stage.
Blooding Mask was born in 1992 officially, although the concept began in '91 when "Exit" and "A requiem for a Dear one" were written in occasion of the death of Tom, Maethelyiah's uncle.
Blooding Mask has since had 4 albums produced by Apollyon and MBR (Germany) and more recently by I.A.P. UK which re-released the whole discography in triangular and heptagonal CD cases.
The characteristics of Blooding Mask embrace parts of real magic rituals, lyrics in many languages (including Theban), and choral experiments in quarters of tunes. (c)


[galltoto.com]_t_5589817.torrent
Торрент: Зарегистрирован ·  [ 2018-07-21 22:26 ] ·  b58c713af7582a4c121af6241ffe1711240e870a

12 KB

Статус: проверено
Скачан: 0 раз
Размер: 277 MB
Оценка: 
(Голосов: 0)
Сказали спасибо: 0  Спасибо
Похожие темы
[Профиль]    [ЛС]
Показать сообщения:    
Ответить на тему

Текущее время: Сегодня 11:30

Часовой пояс: GMT + 7



Вы не можете начинать темы
Вы не можете отвечать на сообщения
Вы не можете редактировать свои сообщения
Вы не можете удалять свои сообщения
Вы не можете голосовать в опросах
Вы не можете прикреплять файлы к сообщениям
Вы можете скачивать файлы


Home Made Media - Home Made Trannies In thailand xxx DVDRip | Mandharam (2018) DVDScr Malayalam Movie Watch Online Free | David Kallaway