(Neoclassic/Gothic) Autumn Tears - Discography (1996-2018) 8CD, FLAC (image.cue), lossless

Ответить на тему
Статистика раздачи [Обновить пиров]
Размер:  1.88 GB   |    Зарегистрирован:  10 месяцев 16 дней   |    Скачан:  0 раз

Полного источника не было: Никогда

 
   
 
 
 
Автор Сообщение

galltoto.com

Создавать темы 05-Мар-2018 20:30

[Цитировать]

[img]http://image.ibb.co/iKySpw/Autumn_Tears_Logo_zps75304b38.png[/img]Autumn Tears - Discography
Страна: United States
Жанр: Neoclassic/Gothic
Аудио кодек: FLAC (*.flac)
Тип рипа: image+.cue
Битрейт аудио: lossless
Источник: собственные рипы
Сканы: да
-

1996/2008 - Love Poems for Dying Children Act I - 13th Anniversary Edition (2CD)

[img=right]http://image.ibb.co/dd5kbb/Autumn_Tears_Love_Poems...156712.jpg[/img]
Треклист:
CD1:
01. They Watch with Closed Eyes (5:49)
02. Ode to My Forthcoming Winter, Part 1 - Spring (1:48)
03. Part 2 - Summer (1:50)
04. Part 3 - Autumn (2:27)
05. Part 4 - Winter (2:35)
06. The Eloquent Sleep (9:28)
07. And Then the Whispering... (4:31)
08. One Tender Kiss (The Lost Seasons) - Prelude to the Garden of Crystalline Dreams (3:33)
09. Carfax Abbey (7:10)
total time 0:39:11
CD2:
01. They Watch with Closed Eyes (5:50)
02. Ode to My Forthcoming Winter, Part 1 - Spring (1:46)
03. Part 2 - Summer (1:52)
04. Part 3 - Autumn (2:29)
05. Part 4 - Winter (2:36)
06. The Eloquent Sleep (9:28)
07. And Then the Whispering... (4:33)
08. One Tender Kiss (The Lost Seasons) - Prelude to the Garden of Crystalline Dreams (3:36)
09. Carfax Abbey (7:13)
10. The Intermission (5:37)*
total time 0:44:59
Доп. информация:
Dark Symphonies [DARK I]

Info

CD1 - Original Mix 1996CD2 - Reprise MCMXCVIII 1998; Remixed and remastered version of the album*- Bonus track

Bonus 1996 Interview (Multimedia track)

Video: MPEG4 Video 720x480 (9:5) 29.97fps 1203kbps [Video]Audio: AAC 48000Hz stereo 127kbps [Audio]

Отчёт ЕАС CD1

Exact Audio Copy V1.0 beta 3 from 29. August 2011
EAC extraction logfile from 2. January 2014, 14:23
Autumn Tears / Love Poems for Dying Children, Act I - 13th Anniversery Ed. (Disc 1 - Original Mix 1996)
Used drive : ASUS DRW-1612BL Adapter: 2 ID: 0
Read mode : SecureUtilize accurate stream : YesDefeat audio cache : YesMake use of C2 pointers : No
Read offset correction : 6Overread into Lead-In and Lead-Out : NoFill up missing offset samples with silence : YesDelete leading and trailing silent blocks : NoNull samples used in CRC calculations : YesUsed interface : Installed external ASPI interface
Used output format : User Defined EncoderSelected bitrate : 128 kBit/sQuality : HighAdd ID3 tag : NoCommand line compressor : C:\Program Files\EAC\Exact Audio Copy\Flac\flac.exeAdditional command line options : -V -8 -T "Date=%year%" -T "Genre=%genre%" %source%
TOC of the extracted CD
Track | Start | Length | Start sector | End sector --------------------------------------------------------- 1 | 0:00.00 | 5:48.64 | 0 | 26163 2 | 5:48.64 | 1:48.08 | 26164 | 34271 3 | 7:36.72 | 1:50.02 | 34272 | 42523 4 | 9:26.74 | 2:27.21 | 42524 | 53569 5 | 11:54.20 | 2:34.74 | 53570 | 65193 6 | 14:29.19 | 9:28.29 | 65194 | 107822 7 | 23:57.48 | 4:30.66 | 107823 | 128138 8 | 28:28.39 | 3:32.52 | 128139 | 144090 9 | 32:01.16 | 7:09.47 | 144091 | 176312 10 | 41:42.63 | 14:20.31 | 187713 | 252243
Range status and errors
Selected range
Filename C:\darkbrides\Autumn Tears - Love Poems for Dying Children, Act I - 13th Anniversery Ed. (Disc 1 - Original Mix 1996).wav
Peak level 99.4 % Extraction speed 7.7 X Range quality 100.0 % Test CRC C543B8B0 Copy CRC C543B8B0 Copy OK
No errors occurred
AccurateRip summary
Track 1 accurately ripped (confidence 2) [7F317FCF] (AR v1)Track 2 accurately ripped (confidence 2) [6A59BADA] (AR v1)Track 3 accurately ripped (confidence 2) [DBBEC858] (AR v1)Track 4 accurately ripped (confidence 2) [420BC0AE] (AR v1)Track 5 accurately ripped (confidence 2) [D4B7D960] (AR v1)Track 6 accurately ripped (confidence 2) [804E29F9] (AR v1)Track 7 accurately ripped (confidence 2) [D29AE065] (AR v1)Track 8 accurately ripped (confidence 2) [14A4D632] (AR v1)Track 9 accurately ripped (confidence 2) [E2B8348C] (AR v1)
All tracks accurately ripped
End of status report
==== Log checksum 1584D43E60FC0F4E72F9524D6B5AB1777EB052245C3D41029C569307C844724E ====

Отчёт ЕАС CD1

Exact Audio Copy V1.0 beta 3 from 29. August 2011
EAC extraction logfile from 2. January 2014, 14:44
Autumn Tears / Love Poems for Dying Children, Act I - 13th Anniversery Ed. (Disc 2 - Reprise MCMXCVIII)
Used drive : ASUS DRW-1612BL Adapter: 2 ID: 0
Read mode : SecureUtilize accurate stream : YesDefeat audio cache : YesMake use of C2 pointers : No
Read offset correction : 6Overread into Lead-In and Lead-Out : NoFill up missing offset samples with silence : YesDelete leading and trailing silent blocks : NoNull samples used in CRC calculations : YesUsed interface : Installed external ASPI interface
Used output format : User Defined EncoderSelected bitrate : 128 kBit/sQuality : HighAdd ID3 tag : NoCommand line compressor : C:\Program Files\EAC\Exact Audio Copy\Flac\flac.exeAdditional command line options : -V -8 -T "Date=%year%" -T "Genre=%genre%" %source%
TOC of the extracted CD
Track | Start | Length | Start sector | End sector --------------------------------------------------------- 1 | 0:00.00 | 5:49.40 | 0 | 26214 2 | 5:49.40 | 1:45.63 | 26215 | 34152 3 | 7:35.28 | 1:51.41 | 34153 | 42518 4 | 9:26.69 | 2:28.44 | 42519 | 53662 5 | 11:55.38 | 2:36.12 | 53663 | 65374 6 | 14:31.50 | 9:28.07 | 65375 | 107981 7 | 23:59.57 | 4:32.67 | 107982 | 128448 8 | 28:32.49 | 3:36.18 | 128449 | 144666 9 | 32:08.67 | 7:12.65 | 144667 | 177131 10 | 39:21.57 | 5:37.30 | 177132 | 202436
Range status and errors
Selected range
Filename C:\darkbrides\Autumn Tears - Love Poems for Dying Children, Act I - 13th Anniversery Ed. (Disc 2 - Reprise MCMXCVIII).wav
Peak level 100.0 % Extraction speed 6.7 X Range quality 99.9 % Test CRC CB5BD8B3 Copy CRC CB5BD8B3 Copy OK
No errors occurred
AccurateRip summary
Track 1 accurately ripped (confidence 2) [F5D1DDAD] (AR v1)Track 2 accurately ripped (confidence 2) [10321AC3] (AR v1)Track 3 accurately ripped (confidence 2) [C3705B83] (AR v1)Track 4 accurately ripped (confidence 2) [BD811D77] (AR v1)Track 5 accurately ripped (confidence 2) [C75681CC] (AR v1)Track 6 accurately ripped (confidence 2) [3C1B2674] (AR v1)Track 7 accurately ripped (confidence 2) [C21D7F72] (AR v1)Track 8 accurately ripped (confidence 2) [022F0816] (AR v1)Track 9 accurately ripped (confidence 2) [1503531B] (AR v1)Track 10 accurately ripped (confidence 2) [F3C1A6A0] (AR v1)
All tracks accurately ripped
End of status report
==== Log checksum E52AA7CF6805E2E4A51C56333AF196239942EC631E0B42E635856A7679226FCF ====

1997/1999 - Love Poems for Dying Children... Act II: The Garden of Crystalline Dreams

[img=right]http://image.ibb.co/dAdGhG/Autumn_Tears_Love_Poems...2ae951.jpg[/img]
Треклист:
01. Do They Ever Sing? (1:42)
02. This, My Melancholic Masquerade (5:12)
03. A Dreaming Kiss (6:08)
04. So Sweet... The Tears (3:10)
05. Commiseration in Mourning (2:28)
06. The Garden of Crystalline Dreams - Act One (6:01)
07. The Battle - Act Two (7:21)
08. The Ebony Meadow - Act Three (6:34)
09. A Shadow Painted White (6:04)
10. Black Heaven (3:52)
11. The Blooming (1:53)*
total time 0:50:25
Доп. информация:
Dark Symphonies [Dark 2]

Info

*- bonus track on digipak re-release 1999

Отчёт ЕАС

Exact Audio Copy V1.0 beta 3 from 29. August 2011
EAC extraction logfile from 4. January 2014, 1:43
Autumn Tears / Love Poems for Dying Children... Act II
Used drive : ASUS DRW-1612BL Adapter: 2 ID: 0
Read mode : SecureUtilize accurate stream : YesDefeat audio cache : YesMake use of C2 pointers : No
Read offset correction : 6Overread into Lead-In and Lead-Out : NoFill up missing offset samples with silence : YesDelete leading and trailing silent blocks : NoNull samples used in CRC calculations : YesUsed interface : Installed external ASPI interface
Used output format : User Defined EncoderSelected bitrate : 128 kBit/sQuality : HighAdd ID3 tag : NoCommand line compressor : C:\Program Files\EAC\Exact Audio Copy\Flac\flac.exeAdditional command line options : -V -8 -T "Date=%year%" -T "Genre=%genre%" %source%
TOC of the extracted CD
Track | Start | Length | Start sector | End sector --------------------------------------------------------- 1 | 0:00.00 | 1:42.00 | 0 | 7649 2 | 1:42.00 | 5:11.53 | 7650 | 31027 3 | 6:53.53 | 6:07.46 | 31028 | 58598 4 | 13:01.24 | 3:10.37 | 58599 | 72885 5 | 16:11.61 | 2:27.65 | 72886 | 83975 6 | 18:39.51 | 6:00.56 | 83976 | 111031 7 | 24:40.32 | 7:21.29 | 111032 | 144135 8 | 32:01.61 | 6:34.09 | 144136 | 173694 9 | 38:35.70 | 6:04.17 | 173695 | 201011 10 | 44:40.12 | 3:52.28 | 201012 | 218439 11 | 48:32.40 | 1:52.59 | 218440 | 226898
Range status and errors
Selected range
Filename C:\darkbrides\Autumn Tears - Love Poems for Dying Children... Act II.wav
Peak level 100.0 % Extraction speed 8.4 X Range quality 100.0 % Test CRC 3B9A7D56 Copy CRC 3B9A7D56 Copy OK
No errors occurred
AccurateRip summary
Track 1 accurately ripped (confidence 3) [5B6CFBF6] (AR v2)Track 2 accurately ripped (confidence 3) [C1E58224] (AR v2)Track 3 accurately ripped (confidence 3) [31C36F76] (AR v2)Track 4 accurately ripped (confidence 3) [C592BFD6] (AR v2)Track 5 accurately ripped (confidence 3) [FE718399] (AR v2)Track 6 accurately ripped (confidence 3) [B3BF3F6D] (AR v2)Track 7 accurately ripped (confidence 3) [9BDF59EB] (AR v2)Track 8 accurately ripped (confidence 3) [53341F34] (AR v2)Track 9 accurately ripped (confidence 3) [7546F5B3] (AR v2)Track 10 accurately ripped (confidence 3) [E4347743] (AR v2)Track 11 accurately ripped (confidence 3) [66C1C15C] (AR v2)
All tracks accurately ripped
End of status report
==== Log checksum 25760DA91497AEE54F055AF0D5D41CFB8FE070CC562524DD4C49FC714806B277 ====

1999 - Absolution (EP)

[img=right]http://image.ibb.co/eoJhNG/Autumn_Tears_Absolution...3d496e.jpg[/img]
Треклист:
01. The Absolution of What Once Was (2:41)
02. The Never (6:01)
03. The Dance (3:41)
total time 0:12:22
Доп. информация:
Dark Symphonies [DARK 4]

Отчёт ЕАС

Exact Audio Copy V1.0 beta 3 from 29. August 2011
EAC extraction logfile from 2. January 2014, 15:11
Autumn Tears / Absolution
Used drive : ASUS DRW-1612BL Adapter: 2 ID: 0
Read mode : SecureUtilize accurate stream : YesDefeat audio cache : YesMake use of C2 pointers : No
Read offset correction : 6Overread into Lead-In and Lead-Out : NoFill up missing offset samples with silence : YesDelete leading and trailing silent blocks : NoNull samples used in CRC calculations : YesUsed interface : Installed external ASPI interface
Used output format : User Defined EncoderSelected bitrate : 128 kBit/sQuality : HighAdd ID3 tag : NoCommand line compressor : C:\Program Files\EAC\Exact Audio Copy\Flac\flac.exeAdditional command line options : -V -8 -T "Date=%year%" -T "Genre=%genre%" %source%
TOC of the extracted CD
Track | Start | Length | Start sector | End sector --------------------------------------------------------- 1 | 0:00.00 | 2:40.47 | 0 | 12046 2 | 2:40.47 | 6:00.51 | 12047 | 39097 3 | 8:41.23 | 3:41.03 | 39098 | 55675
Range status and errors
Selected range
Filename C:\darkbrides\Autumn Tears - Absolution.wav
Peak level 100.0 % Extraction speed 5.5 X Range quality 99.9 % Test CRC F6964DFE Copy CRC F6964DFE Copy OK
No errors occurred
AccurateRip summary
Track 1 accurately ripped (confidence 3) [42244BB2] (AR v2)Track 2 accurately ripped (confidence 3) [6CE1074A] (AR v2)Track 3 accurately ripped (confidence 3) [BEF67D63] (AR v2)
All tracks accurately ripped
End of status report
==== Log checksum 963A931F6231C0BCF15BE580CC28E7A9CE41B18BB51FC7596C5F271690976CF9 ====

2000 - Love Poems for Dying Children... Act III: Winter and the Broken Angel

[img=right]http://image.ibb.co/dOXbhG/Autumn_Tears_Love_Poems...602336.jpg[/img]
Треклист:
01. The Grand Celebration (5:07)
02. The MirrorStone (1:40)
03. The Never (5:55)
04. The Broken Doll (4:54)
05. Winter's Warning - I. Prologue (0:47)
06. Winter's Warning - II. Spring Requiem (2:01)
07. Winter's Warning - III. Summer Requiem (1:32)
08. Winter's Warning - IV. Autumn Requiem (2:01)
09. Winter's Warning - V. Winter Requiem (2:19)
10. Winter's Warning - VI. Epilogue (0:46)
11. The Passion and the Fury (3:10)
12. The Widowtree (6:14)
13. The Bird without Wings (1:09)
14. The Eyes of Deception (3:26)
total time 0:41:02
Доп. информация:
Dark Symphonies [DARK 8]

Отчёт ЕАС

Exact Audio Copy V1.0 beta 3 from 29. August 2011
EAC extraction logfile from 2. January 2014, 15:37
Autumn Tears / Love Poems for Dying Children... act III
Used drive : ASUS DRW-1612BL Adapter: 2 ID: 0
Read mode : SecureUtilize accurate stream : YesDefeat audio cache : YesMake use of C2 pointers : No
Read offset correction : 6Overread into Lead-In and Lead-Out : NoFill up missing offset samples with silence : YesDelete leading and trailing silent blocks : NoNull samples used in CRC calculations : YesUsed interface : Installed external ASPI interface
Used output format : User Defined EncoderSelected bitrate : 128 kBit/sQuality : HighAdd ID3 tag : NoCommand line compressor : C:\Program Files\EAC\Exact Audio Copy\Flac\flac.exeAdditional command line options : -V -8 -T "Date=%year%" -T "Genre=%genre%" %source%
TOC of the extracted CD
Track | Start | Length | Start sector | End sector --------------------------------------------------------- 1 | 0:01.00 | 5:06.42 | 75 | 23066 2 | 5:07.42 | 1:40.27 | 23067 | 30593 3 | 6:47.69 | 5:55.19 | 30594 | 57237 4 | 12:43.13 | 4:53.56 | 57238 | 79268 5 | 17:36.69 | 0:46.68 | 79269 | 82786 6 | 18:23.62 | 2:01.23 | 82787 | 91884 7 | 20:25.10 | 1:32.27 | 91885 | 98811 8 | 21:57.37 | 2:00.56 | 98812 | 107867 9 | 23:58.18 | 2:18.40 | 107868 | 118257 10 | 26:16.58 | 0:46.03 | 118258 | 121710 11 | 27:02.61 | 3:10.09 | 121711 | 135969 12 | 30:12.70 | 6:13.60 | 135970 | 164004 13 | 36:26.55 | 1:09.25 | 164005 | 169204 14 | 37:36.05 | 3:26.01 | 169205 | 184655
Range status and errors
Selected range
Filename C:\darkbrides\Autumn Tears - Love Poems for Dying Children... act III.wav
Peak level 100.0 % Extraction speed 4.5 X Range quality 100.0 % Test CRC 7B168B35 Copy CRC 7B168B35 Copy OK
No errors occurred
AccurateRip summary
Track 1 accurately ripped (confidence 2) [B60F2452] (AR v2)Track 2 accurately ripped (confidence 2) [89BCC4FF] (AR v2)Track 3 accurately ripped (confidence 2) [A1EEB9F4] (AR v2)Track 4 accurately ripped (confidence 2) [78FAE02E] (AR v2)Track 5 accurately ripped (confidence 2) [4A2D826C] (AR v2)Track 6 accurately ripped (confidence 2) [6D019FC2] (AR v2)Track 7 accurately ripped (confidence 2) [4D76D580] (AR v2)Track 8 accurately ripped (confidence 2) [3E7661D7] (AR v2)Track 9 accurately ripped (confidence 2) [E79C8C72] (AR v2)Track 10 accurately ripped (confidence 2) [29721CD4] (AR v2)Track 11 accurately ripped (confidence 2) [39F30AAB] (AR v2)Track 12 accurately ripped (confidence 2) [1EF7D197] (AR v2)Track 13 accurately ripped (confidence 2) [B7FC1A58] (AR v2)Track 14 accurately ripped (confidence 2) [8DC3535E] (AR v2)
All tracks accurately ripped
End of status report
==== Log checksum B8A3B0CEABDF52D40184EE5F9B6D827802A633A06486400F35AB519FE7946CB2 ====

2004 - Eclipse

[img=right]http://image.ibb.co/fdSywb/Autumn_Tears_Eclipse_Co...43efda.jpg[/img]
Треклист:
01. Commemoration (1:18)
02. Ophelias Crown (4:44)
03. Three (0:57)
04. Dawn (4:19)
05. Remember (3:57)
06. Flight (5:25)
07. The Beauty in All Things (4:23)
08. Pandora's Womb (6:00)
09. At a Distance (4:28)
10. Eclipse (4:33)
total time 0:40:03
Доп. информация:
Dark Symphonies [DARK 23]

Отчёт ЕАС

Exact Audio Copy V1.0 beta 3 from 29. August 2011
EAC extraction logfile from 2. January 2014, 15:59
Autumn Tears / Eclipse
Used drive : ASUS DRW-1612BL Adapter: 2 ID: 0
Read mode : SecureUtilize accurate stream : YesDefeat audio cache : YesMake use of C2 pointers : No
Read offset correction : 6Overread into Lead-In and Lead-Out : NoFill up missing offset samples with silence : YesDelete leading and trailing silent blocks : NoNull samples used in CRC calculations : YesUsed interface : Installed external ASPI interface
Used output format : User Defined EncoderSelected bitrate : 128 kBit/sQuality : HighAdd ID3 tag : NoCommand line compressor : C:\Program Files\EAC\Exact Audio Copy\Flac\flac.exeAdditional command line options : -V -8 -T "Date=%year%" -T "Genre=%genre%" %source%
TOC of the extracted CD
Track | Start | Length | Start sector | End sector --------------------------------------------------------- 1 | 0:00.00 | 1:18.27 | 0 | 5876 2 | 1:18.27 | 4:43.48 | 5877 | 27149 3 | 6:02.00 | 0:56.74 | 27150 | 31423 4 | 6:58.74 | 4:18.49 | 31424 | 50822 5 | 11:17.48 | 3:56.72 | 50823 | 68594 6 | 15:14.45 | 5:24.52 | 68595 | 92946 7 | 20:39.22 | 4:22.59 | 92947 | 112655 8 | 25:02.06 | 6:00.23 | 112656 | 139678 9 | 31:02.29 | 4:27.53 | 139679 | 159756 10 | 35:30.07 | 4:33.19 | 159757 | 180250
Range status and errors
Selected range
Filename C:\darkbrides\Autumn Tears - Eclipse.wav
Peak level 99.8 % Extraction speed 4.4 X Range quality 99.9 % Test CRC 08155754 Copy CRC 08155754 Copy OK
No errors occurred
AccurateRip summary
Track 1 accurately ripped (confidence 5) [E7D8826A] (AR v2)Track 2 accurately ripped (confidence 5) [E7295C17] (AR v2)Track 3 accurately ripped (confidence 5) [6632A66D] (AR v2)Track 4 accurately ripped (confidence 5) [EDBB926B] (AR v2)Track 5 accurately ripped (confidence 5) [3587DA20] (AR v2)Track 6 accurately ripped (confidence 5) [9BD4AFF5] (AR v2)Track 7 accurately ripped (confidence 5) [EC889DCE] (AR v2)Track 8 accurately ripped (confidence 5) [902969A5] (AR v2)Track 9 accurately ripped (confidence 5) [45F1DBD3] (AR v2)Track 10 accurately ripped (confidence 5) [ED9B4D44] (AR v2)
All tracks accurately ripped
End of status report
==== Log checksum 05B3358A839C698C6FD7983F6CB19CD4D0328D37EDF1CE80C5F5D4D56B95F7B1 ====

2007 - The Hallowing

[img=right]http://image.ibb.co/kdqwhG/Autumn_Tears_The_Hallow...e05903.jpg[/img]
Треклист:
01. Dies Irae (7:18)
02. Keep Me Here (3:40)
03. Spirit (3:48)
04. A Joyless Occasion (3:10)
05. Thrush and Wake (3:41)
06. Yearning for the Tide (4:01)
07. The Funeral Bazaar (3:03)
08. Canticle (5:06)
09. The Last King Falls (3:30)
10. The Hallowing (5:25)
total time 0:42:41
Доп. информация:
Dark Symphonies [dark 27]

Отчёт ЕАС

Exact Audio Copy V1.0 beta 3 from 29. August 2011
EAC extraction logfile from 2. January 2014, 16:24
Autumn Tears / The Hallowing
Used drive : ASUS DRW-1612BL Adapter: 2 ID: 0
Read mode : SecureUtilize accurate stream : YesDefeat audio cache : YesMake use of C2 pointers : No
Read offset correction : 6Overread into Lead-In and Lead-Out : NoFill up missing offset samples with silence : YesDelete leading and trailing silent blocks : NoNull samples used in CRC calculations : YesUsed interface : Installed external ASPI interface
Used output format : User Defined EncoderSelected bitrate : 128 kBit/sQuality : HighAdd ID3 tag : NoCommand line compressor : C:\Program Files\EAC\Exact Audio Copy\Flac\flac.exeAdditional command line options : -V -8 -T "Date=%year%" -T "Genre=%genre%" %source%
TOC of the extracted CD
Track | Start | Length | Start sector | End sector --------------------------------------------------------- 1 | 0:00.00 | 7:17.65 | 0 | 32839 2 | 7:17.65 | 3:39.56 | 32840 | 49320 3 | 10:57.46 | 3:47.42 | 49321 | 66387 4 | 14:45.13 | 3:09.63 | 66388 | 80625 5 | 17:55.01 | 3:41.05 | 80626 | 97205 6 | 21:36.06 | 4:00.55 | 97206 | 115260 7 | 25:36.61 | 3:02.59 | 115261 | 128969 8 | 28:39.45 | 5:05.71 | 128970 | 151915 9 | 33:45.41 | 3:29.68 | 151916 | 167658 10 | 37:15.34 | 5:25.32 | 167659 | 192065
Range status and errors
Selected range
Filename C:\darkbrides\Autumn Tears - The Hallowing.wav
Peak level 100.0 % Extraction speed 8.8 X Range quality 100.0 % Test CRC A6C61BC1 Copy CRC A6C61BC1 Copy OK
No errors occurred
AccurateRip summary
Track 1 accurately ripped (confidence 5) [3EAF1151] (AR v2)Track 2 accurately ripped (confidence 5) [2BA1087C] (AR v2)Track 3 accurately ripped (confidence 5) [01078F01] (AR v2)Track 4 accurately ripped (confidence 5) [44CF6644] (AR v2)Track 5 accurately ripped (confidence 5) [3C5C0DE8] (AR v2)Track 6 accurately ripped (confidence 5) [651873A1] (AR v2)Track 7 accurately ripped (confidence 5) [AAB850F3] (AR v2)Track 8 accurately ripped (confidence 5) [DCD254E0] (AR v2)Track 9 accurately ripped (confidence 5) [19BD83CF] (AR v2)Track 10 accurately ripped (confidence 5) [54253B79] (AR v2)
All tracks accurately ripped
End of status report
==== Log checksum 332428F3AFC03AFAC3526770C2E27681077870150AA80E5D8AF60EECA95C811A ====

2018 - The Origin Of Sleep (EP)

[img=right]http://image.ibb.co/k0KFQ7/Autumn_Tears_The_Origin..._Cover.jpg[/img]
Треклист:
01. Chasing The Void (3:53)
02. The Ghost Beside Me (4:21)
03. Breathing Beneath The Soil (4:10)
04. Shaping A Fragile Utopia (8:18)
05. The Origin Of Sleep (4:27)
total time 0:25:10
Доп. информация:
Dark Symphonies [DARK100CD]

Отчёт ЕАС

Exact Audio Copy V1.1 from 23. June 2015
EAC extraction logfile from 2. March 2018, 13:33
Autumn Tears / The Origin Of Sleep
Used drive : ASUS DRW-1612BL Adapter: 2 ID: 0
Read mode : SecureUtilize accurate stream : YesDefeat audio cache : YesMake use of C2 pointers : No
Read offset correction : 6Overread into Lead-In and Lead-Out : NoFill up missing offset samples with silence : YesDelete leading and trailing silent blocks : NoNull samples used in CRC calculations : YesUsed interface : Installed external ASPI interface
Used output format : User Defined EncoderSelected bitrate : 128 kBit/sQuality : HighAdd ID3 tag : NoCommand line compressor : C:\Program Files\EAC\Exact Audio Copy\Flac\flac.exeAdditional command line options : -V -8 -T "Date=%year%" -T "Genre=%genre%" %source%
TOC of the extracted CD
Track | Start | Length | Start sector | End sector --------------------------------------------------------- 1 | 0:00.00 | 3:52.54 | 0 | 17453 2 | 3:52.54 | 4:21.23 | 17454 | 37051 3 | 8:14.02 | 4:10.15 | 37052 | 55816 4 | 12:24.17 | 8:18.32 | 55817 | 93198 5 | 20:42.49 | 4:26.72 | 93199 | 113220
Range status and errors
Selected range
Filename C:\darkbrides\Autumn Tears - The Origin Of Sleep.wav
Peak level 100.0 % Extraction speed 6.8 X Range quality 99.9 % Test CRC 25C4C19E Copy CRC 25C4C19E Copy OK
No errors occurred
AccurateRip summary
Track 1 not present in databaseTrack 2 not present in databaseTrack 3 not present in databaseTrack 4 not present in databaseTrack 5 not present in database
None of the tracks are present in the AccurateRip database
End of status report
---- CUETools DB Plugin V2.1.6
[CTDB TOCID: NQGzkUnl8xLO3_QliUP.v6RJ4Ww-] disk not present in databaseSubmit result: NQGzkUnl8xLO3_QliUP.v6RJ4Ww- has been uploaded
==== Log checksum F9C9AECB903E8E421F86908AFDFBB365ABA02445B26287A350208E515BE5FFB4 ====
-


[galltoto.com]_t_543448.torrent
Торрент: Зарегистрирован ·  [ 2018-03-05 20:25 ] ·  17c5f7aadcdca5d8628e4adf05026424a4ca951d

30 KB

Статус: проверено
Скачан: 0 раз
Размер: 1.88 GB
Оценка: 
(Голосов: 0)
Сказали спасибо: 0  Спасибо
Похожие темы
[Профиль]    [ЛС]
Показать сообщения:    
Ответить на тему

Текущее время: Сегодня 11:29

Часовой пояс: GMT + 7



Вы не можете начинать темы
Вы не можете отвечать на сообщения
Вы не можете редактировать свои сообщения
Вы не можете удалять свои сообщения
Вы не можете голосовать в опросах
Вы не можете прикреплять файлы к сообщениям
Вы можете скачивать файлы


Elucidating Science | When Animals Dream | Dragon Ball Chapter 388