Ария - "Все, что было" Концерт в Торонто, 01.12.2013 [2013, Heavy Metal, CAMRip]

Ответить на тему
Статистика раздачи [Обновить пиров]
Размер:  1.65 GB   |    Зарегистрирован:  1 год 11 месяцев   |    Скачан:  0 раз

Полного источника не было: Никогда

 
   
 
 
 
Автор Сообщение

galltoto.com

Создавать темы 16-Фев-2017 21:04

[Цитировать]

Ария
Концерт в Торонто
"Все, что было"
Жанр: Heavy Metal
Продолжительность: 1:56:05
Год выхода: 2013
Состав:
Владимир Холстинин - гитара
Виталий Дубинин - бас, вокал
Михаил Житняков - вокал
Сергей Попов - гитара
Максим Удалов - барабаны
Песни:
- Горящая Стрела
- Раскачаем Этот Мир
- Смотри!
- Крещение Огнем
- Ангельская Пыль
- Король Дороги
- Дальний Свет
- История Одного Убийцы
- Колизей
- Соло на барабанах: Максим Удалов
- Ночь Короче Дня
- На Службе Силы Зла
- Небо Тебе Найдет
- Осколок Льда
- Штиль
- Герой Асфальта
- Улица Роз
- Все, что было
- Дай Жару!
Качество: CАМRip
Формат файла: MKV
Видео кодек: V_MPEG4/ISO/AVC
Аудио кодек: A_AC3
Видео: AVC Video 768x432 25fps 1 801 Kbps
Аудио: AC-3 192 Kbps 44.1 KHz 2 channels
Раздача:[url=viewtopic.php?t=4624773]HD[/url]
Внимание:
- концерт снят на одну любительскую HD камеру
- концерт снят полностью
- в некоторых местах слышны голоса зрителей
- камера иногда дрожит

Отчёт MediaInfo / BDInfo

GeneralComplete name: Aria in Toronto_December 1, 2013.mkvFormat: MatroskaFile size: 1.65 GiBDuration: 1h 56mnOverall bit rate: 2 034 KbpsWriting application: Lavf55.19.104Writing library: Lavf55.19.104
VideoID: 1Format: AVCFormat/Info: Advanced Video CodecFormat profile: Baseline@L3.0Format settings, CABAC: NoFormat settings, ReFrames: 2 framesMuxing mode: Container profile=Unknown@3.0Codec ID: V_MPEG4/ISO/AVCDuration: 1h 56mnBit rate: 1 801 KbpsWidth : 768 pixelsHeight: 432 pixelsDisplay aspect ratio: 16/9Frame rate mode: VariableFrame rate: 25.000 fpsResolution: 24 bitsColorimetry: 4:2:0Scan type: ProgressiveBits/(Pixel*Frame): 0.217Stream size: 1.46 GiB (89%)Writing library: x264 core 130Encoding settings: cabac=0 / ref=2 / deblock=1:0:0 / analyse=0x1:0x11 / me=esa / subme=5 / psy=1 / psy_rd=1.00:0.00 / mixed_ref=1 / me_range=16 / chroma_me=1 / trellis=2 / 8x8dct=0 / cqm=0 / deadzone=21,11 / fast_pskip=1 / chroma_qp_offset=0 / threads=12 / lookahead_threads=3 / sliced_threads=0 / nr=0 / decimate=1 / interlaced=0 / bluray_compat=0 / constrained_intra=0 / bframes=0 / weightp=0 / keyint=250 / keyint_min=25 / scenecut=40 / intra_refresh=0 / rc_lookahead=40 / rc=crf / mbtree=1 / crf=22.0 / qcomp=0.60 / qpmin=2 / qpmax=30 / qpstep=4 / vbv_maxrate=5000 / vbv_bufsize=18350 / crf_max=0.0 / nal_hrd=none / ip_ratio=1.41 / aq=1:1.00
AudioID: 2Format: AC-3Format/Info: Audio Coding 3Codec ID: A_AC3Duration: 1h 56mnBit rate mode: ConstantBit rate: 192 KbpsChannel(s): 2 channelsChannel positions: L RSampling rate: 44.1 KHzResolution: 32 bitsStream size: 159 MiB (9%)Alignment: Aligned on interleavesInterleave, duration: 32 ms (1.92 video frames)

Скриншоты



[galltoto.com]_t_4625353.torrent
Торрент: Зарегистрирован ·  [ 2017-02-16 20:42 ] ·  56f439f16d305efe2ee0fd40a864c7d7ef92e030

17 KB

Статус: проверено
Скачан: 0 раз
Размер: 1.65 GB
Оценка: 
(Голосов: 0)
Сказали спасибо: 0  Спасибо
Похожие темы
[Профиль]    [ЛС]
Показать сообщения:    
Ответить на тему

Текущее время: Сегодня 12:12

Часовой пояс: GMT + 7



Вы не можете начинать темы
Вы не можете отвечать на сообщения
Вы не можете редактировать свои сообщения
Вы не можете удалять свои сообщения
Вы не можете голосовать в опросах
Вы не можете прикреплять файлы к сообщениям
Вы можете скачивать файлы


the pink painter show | Ir al listado de capitulos | Adidas X